Вы используете незарегистрированную версию компонента "Вкладки"!

Поиск

(Free Jazz, Post-Bop, Fusion) Tisziji Munoz - Death Is A Friend Of Mine (2CD) - 1996, FLAC (tracks+.cue), lossless

(Free Jazz, Post-Bop, Fusion) Tisziji Munoz - Death Is A Friend Of Mine (2CD) - 1996, FLAC (tracks+.cue), lossless
Треклист:
Tisziji Munoz / Death Is A Friend Of Mine (2CD)
Жанр: Free Jazz, Post-Bop, Fusion
Страна-производитель диска: US
Год издания: 1996
Издатель (лейбл): Anami Music
Номер по каталогу: AM009
Страна: US
Аудиокодек: FLAC (*.flac)
Тип рипа: tracks+.cue
Битрейт аудио: lossless
Продолжительность: 50:49 + 45:58
Источник (релизер): свой фирменный диск
Наличие сканов в содержимом раздачи:
Треклист:
 
CD1
1. Seven Steps To Heaven (4:38)
2. All Blues (9:52)
3. Death Is A Friend Of Mine (9:47)
4. Love Is Greater Than All Changes (7:48)
5. Matrix (8:21)
6. Love Is When You Let It Be (9:49)
 
CD2
1. Earth Changes (7:44)
2. Summer of ‘42 (2:36)
3. Dindi (11:30)
4. Giant Steps (4:57)
5. Don’t Turn Back (7:05)
6. Afro Spanish Gypsy (7:53)
7. Emily (3:37)
 
Лог создания рипа
 
CD1
Exact Audio Copy V1.0 beta 3 from 29. August 2011
EAC extraction logfile from 2. November 2013, 0:12
Tisziji Munoz / Death Is A Friend Of Mine CD1
Used drive : TSSTcorpCDDVDW SH-222AB Adapter: 1 ID: 0
Read mode : Secure
Utilize accurate stream : Yes
Defeat audio cache : Yes
Make use of C2 pointers : No
Read offset correction : 6
Overread into Lead-In and Lead-Out : No
Fill up missing offset samples with silence : Yes
Delete leading and trailing silent blocks : No
Null samples used in CRC calculations : Yes
Used interface : Installed external ASPI interface
Gap handling : Appended to previous track
Used output format : User Defined Encoder
Selected bitrate : 896 kBit/s
Quality : High
Add ID3 tag : No
Command line compressor : C:\Program Files\Exact Audio Copy\FLAC\FLAC.EXE
Additional command line options : -6 -V -T "ARTIST=%artist%" -T "TITLE=%title%" -T "ALBUM=%albumtitle%" -T "DATE=%year%" -T "TRACKNUMBER=%tracknr%" -T "GENRE=%genre%" -T "COMMENT=%comment%" -T "BAND=%albuminterpret%" -T "COMPOSER=%composer%" %haslyrics%--tag-from-file=LYRICS="%lyricsfile%"%haslyrics% -T "DISCNUMBER=%cdnumber%" -T "TOTALDISCS=%totalcds%" -T "TOTALTRACKS=%numtracks%" %hascover%--picture="%coverfile%"%hascover% %source% -o %dest%
TOC of the extracted CD
Track | Start | Length | Start sector | End sector
---------------------------------------------------------
1 | 0:00.00 | 4:43.30 | 0 | 21254
2 | 4:43.30 | 9:57.02 | 21255 | 66031
3 | 14:40.32 | 9:53.08 | 66032 | 110514
4 | 24:33.40 | 7:53.00 | 110515 | 145989
5 | 32:26.40 | 8:26.07 | 145990 | 183946
6 | 40:52.47 | 9:56.48 | 183947 | 228694
Track 1
Filename D:\zzz\01 - Seven Steps To Heaven.wav
Pre-gap length 0:00:02.00
Peak level 82.7 %
Extraction speed 2.8 X
Track quality 100.0 %
Test CRC C8EAA3BB
Copy CRC C8EAA3BB
Track not present in AccurateRip database
Copy OK
Track 2
Filename D:\zzz\02 - All Blues.wav
Pre-gap length 0:00:03.03
Peak level 99.9 %
Extraction speed 3.0 X
Track quality 100.0 %
Test CRC 3FC6505A
Copy CRC 3FC6505A
Track not present in AccurateRip database
Copy OK
Track 3
Filename D:\zzz\03 - Death Is A Friend Of Mine.wav
Pre-gap length 0:00:03.65
Peak level 83.2 %
Extraction speed 2.9 X
Track quality 100.0 %
Test CRC 1529A295
Copy CRC 1529A295
Track not present in AccurateRip database
Copy OK
Track 4
Filename D:\zzz\04 - Love Is Greater Than All Changes.wav
Pre-gap length 0:00:03.58
Peak level 91.5 %
Extraction speed 2.9 X
Track quality 100.0 %
Test CRC 3069D8A7
Copy CRC 3069D8A7
Track not present in AccurateRip database
Copy OK
Track 5
Filename D:\zzz\05 - Matrix.wav
Pre-gap length 0:00:04.08
Peak level 96.3 %
Extraction speed 2.9 X
Track quality 100.0 %
Test CRC F71B1C87
Copy CRC F71B1C87
Track not present in AccurateRip database
Copy OK
Track 6
Filename D:\zzz\06 - Love Is When You Let It Be.wav
Pre-gap length 0:00:03.40
Peak level 89.2 %
Extraction speed 2.8 X
Track quality 99.9 %
Test CRC 23E86C8C
Copy CRC 23E86C8C
Track not present in AccurateRip database
Copy OK
None of the tracks are present in the AccurateRip database
No errors occurred
End of status report
==== Log checksum 9E5F6227195389999060F54ACE742FC4924CBB86E347EC3112AB92151E557FB6 ====
 
CD2
Exact Audio Copy V1.0 beta 3 from 29. August 2011
EAC extraction logfile from 2. November 2013, 0:35
Tisziji Munoz / Death Is A Friend Of Mine CD2
Used drive : PIONEER DVD-RW DVR-115D Adapter: 0 ID: 0
Read mode : Secure
Utilize accurate stream : Yes
Defeat audio cache : Yes
Make use of C2 pointers : No
Read offset correction : 48
Overread into Lead-In and Lead-Out : No
Fill up missing offset samples with silence : Yes
Delete leading and trailing silent blocks : No
Null samples used in CRC calculations : Yes
Used interface : Installed external ASPI interface
Gap handling : Appended to previous track
Used output format : User Defined Encoder
Selected bitrate : 896 kBit/s
Quality : High
Add ID3 tag : No
Command line compressor : C:\Program Files\Exact Audio Copy\FLAC\FLAC.EXE
Additional command line options : -6 -V -T "ARTIST=%artist%" -T "TITLE=%title%" -T "ALBUM=%albumtitle%" -T "DATE=%year%" -T "TRACKNUMBER=%tracknr%" -T "GENRE=%genre%" -T "COMMENT=%comment%" -T "BAND=%albuminterpret%" -T "COMPOSER=%composer%" %haslyrics%--tag-from-file=LYRICS="%lyricsfile%"%haslyrics% -T "DISCNUMBER=%cdnumber%" -T "TOTALDISCS=%totalcds%" -T "TOTALTRACKS=%numtracks%" %hascover%--picture="%coverfile%"%hascover% %source% -o %dest%
TOC of the extracted CD
Track | Start | Length | Start sector | End sector
---------------------------------------------------------
1 | 0:00.00 | 7:49.07 | 0 | 35181
2 | 7:49.07 | 2:41.23 | 35182 | 47279
3 | 10:30.30 | 11:34.50 | 47280 | 99379
4 | 22:05.05 | 5:03.05 | 99380 | 122109
5 | 27:08.10 | 7:11.00 | 122110 | 154434
6 | 34:19.10 | 7:58.05 | 154435 | 190289
7 | 42:17.15 | 3:41.55 | 190290 | 206919
Track 1
Filename D:\zzz\01 - Earth Changes.wav
Pre-gap length 0:00:02.00
Peak level 84.5 %
Extraction speed 4.5 X
Track quality 99.9 %
Test CRC 559CF949
Copy CRC 559CF949
Track not present in AccurateRip database
Copy OK
Track 2
Filename D:\zzz\02 - Summer Of '42.wav
Pre-gap length 0:00:02.67
Peak level 56.5 %
Extraction speed 4.0 X
Track quality 99.9 %
Test CRC 8BAFB367
Copy CRC 8BAFB367
Track not present in AccurateRip database
Copy OK
Track 3
Filename D:\zzz\03 - Dindi.wav
Pre-gap length 0:00:04.25
Peak level 90.6 %
Extraction speed 6.2 X
Track quality 100.0 %
Test CRC 2EB7DB3B
Copy CRC 2EB7DB3B
Track not present in AccurateRip database
Copy OK
Track 4
Filename D:\zzz\04 - Giant Steps.wav
Pre-gap length 0:00:04.00
Peak level 86.5 %
Extraction speed 6.5 X
Track quality 100.0 %
Test CRC 533DDE62
Copy CRC 533DDE62
Track not present in AccurateRip database
Copy OK
Track 5
Filename D:\zzz\05 - Don't Turn Back.wav
Pre-gap length 0:00:04.23
Peak level 96.4 %
Extraction speed 7.1 X
Track quality 100.0 %
Test CRC 50E2261F
Copy CRC 50E2261F
Track not present in AccurateRip database
Copy OK
Track 6
Filename D:\zzz\06 - Afro Spanish Gypsy.wav
Pre-gap length 0:00:03.25
Peak level 99.9 %
Extraction speed 7.2 X
Track quality 99.9 %
Test CRC 74742733
Copy CRC 74742733
Track not present in AccurateRip database
Copy OK
Track 7
Filename D:\zzz\07 - Emily.wav
Pre-gap length 0:00:03.10
Peak level 53.9 %
Extraction speed 7.3 X
Track quality 100.0 %
Test CRC 073AEDCD
Copy CRC 073AEDCD
Track not present in AccurateRip database
Copy OK
None of the tracks are present in the AccurateRip database
No errors occurred
End of status report
==== Log checksum D58AA2E8E1166FECA4B774D17F52C47B3926C7B74FC7C0D98AC01B43F76DE83F ====
 
Содержание индексной карты (.CUE)
 
CD1
REM GENRE "Jazz Fusion"
REM DATE 1996
REM DISCID 590BE906
REM COMMENT "ExactAudioCopy v1.0b3"
PERFORMER "Tisziji Munoz"
TITLE "Death Is A Friend Of Mine CD1"
FILE "01 - Seven Steps To Heaven.wav" WAVE
TRACK 01 AUDIO
TITLE "Seven Steps To Heaven"
PERFORMER "Tisziji Munoz"
INDEX 01 00:00:00
TRACK 02 AUDIO
TITLE "All Blues"
PERFORMER "Tisziji Munoz"
INDEX 00 04:40:27
FILE "02 - All Blues.wav" WAVE
INDEX 01 00:00:00
TRACK 03 AUDIO
TITLE "Death Is A Friend Of Mine"
PERFORMER "Tisziji Munoz"
INDEX 00 09:53:12
FILE "03 - Death Is A Friend Of Mine.wav" WAVE
INDEX 01 00:00:00
TRACK 04 AUDIO
TITLE "Love Is Greater Than All Changes"
PERFORMER "Tisziji Munoz"
INDEX 00 09:49:25
FILE "04 - Love Is Greater Than All Changes.wav" WAVE
INDEX 01 00:00:00
TRACK 05 AUDIO
TITLE "Matrix"
PERFORMER "Tisziji Munoz"
INDEX 00 07:48:67
FILE "05 - Matrix.wav" WAVE
INDEX 01 00:00:00
TRACK 06 AUDIO
TITLE "Love Is When You Let It Be"
PERFORMER "Tisziji Munoz"
INDEX 00 08:22:42
FILE "06 - Love Is When You Let It Be.wav" WAVE
INDEX 01 00:00:00
 
CD2
REM GENRE "Jazz Fusion"
REM DATE 1996
REM DISCID 4C0AC607
REM COMMENT "ExactAudioCopy v1.0b3"
PERFORMER "Tisziji Munoz"
TITLE "Death Is A Friend Of Mine CD2"
FILE "01 - Earth Changes.wav" WAVE
TRACK 01 AUDIO
TITLE "Earth Changes"
PERFORMER "Tisziji Munoz"
INDEX 01 00:00:00
TRACK 02 AUDIO
TITLE "Summer Of '42"
PERFORMER "Tisziji Munoz"
INDEX 00 07:46:15
FILE "02 - Summer Of '42.wav" WAVE
INDEX 01 00:00:00
TRACK 03 AUDIO
TITLE "Dindi"
PERFORMER "Tisziji Munoz"
INDEX 00 02:36:73
FILE "03 - Dindi.wav" WAVE
INDEX 01 00:00:00
TRACK 04 AUDIO
TITLE "Giant Steps"
PERFORMER "Tisziji Munoz"
INDEX 00 11:30:50
FILE "04 - Giant Steps.wav" WAVE
INDEX 01 00:00:00
TRACK 05 AUDIO
TITLE "Don't Turn Back"
PERFORMER "Tisziji Munoz"
INDEX 00 04:58:57
FILE "05 - Don't Turn Back.wav" WAVE
INDEX 01 00:00:00
TRACK 06 AUDIO
TITLE "Afro Spanish Gypsy"
PERFORMER "Tisziji Munoz"
INDEX 00 07:07:50
FILE "06 - Afro Spanish Gypsy.wav" WAVE
INDEX 01 00:00:00
TRACK 07 AUDIO
TITLE "Emily"
PERFORMER "Tisziji Munoz"
INDEX 00 07:54:70
FILE "07 - Emily.wav" WAVE
INDEX 01 00:00:00
 
Лог проверки качества
d:\>d:\aucdtect -d/-m0 d:\zzz\*.wav
auCDtect: CD records authenticity detector, version 0.8.2
Copyright (c) 2004 Oleg Berngardt. All rights reserved.
Copyright (c) 2004 Alexander Djourik. All rights reserved.
------------------------------------------------------------
Processing file: [01. Earth Changes.wav]
------------------------------------------------------------
This track looks like CDDA with probability 100%
------------------------------------------------------------
Processing file: [01. Seven Steps To Heaven.wav]
------------------------------------------------------------
This track looks like CDDA with probability 100%
------------------------------------------------------------
Processing file: [02. All Blues.wav]
------------------------------------------------------------
This track looks like CDDA with probability 100%
------------------------------------------------------------
Processing file: [02. Summer Of '42.wav]
------------------------------------------------------------
This track looks like CDDA with probability 43%
------------------------------------------------------------
Processing file: [03. Death Is A Friend Of Mine.wav]
------------------------------------------------------------
This track looks like CDDA with probability 100%
------------------------------------------------------------
Processing file: [03. Dindi.wav]
------------------------------------------------------------
This track looks like CDDA with probability 100%
------------------------------------------------------------
Processing file: [04. Giant Steps.wav]
------------------------------------------------------------
This track looks like CDDA with probability 100%
------------------------------------------------------------
Processing file: [04. Love Is Greater Than All Changes.wav]
------------------------------------------------------------
This track looks like CDDA with probability 100%
------------------------------------------------------------
Processing file: [05. Don't Turn Back.wav]
------------------------------------------------------------
This track looks like CDDA with probability 100%
------------------------------------------------------------
Processing file: [05. Matrix.wav]
------------------------------------------------------------
This track looks like CDDA with probability 100%
------------------------------------------------------------
Processing file: [06. Afro Spanish Gypsy.wav]
------------------------------------------------------------
This track looks like CDDA with probability 100%
------------------------------------------------------------
Processing file: [06. Love Is When You Let It Be.wav]
------------------------------------------------------------
This track looks like CDDA with probability 100%
------------------------------------------------------------
Processing file: [07. Emily.wav]
------------------------------------------------------------
This track looks like CDDA with probability 49%
------------------------------------------------------------
Final Conclusion:
------------------------------------------------------------
These tracks looks like CDDA with probability 100%
Доп. информация:
 
Album Info
Тисиджи Муньос - неизвестный герой джазовой гитары. 67 лет, более 20-ти альбомов, никому не известен. Бывает. В детстве ТМ перенёс травму левой руки, в результате чего не может играть на гитаре аккордами, т.е. задействовать всю кисть. Может только перебирать пальцами, но перебирает так, что временами и Джона Маклафлина возьмут завидки. Кстати, ещё одна его особенность - он играет не как джазовый гитарист (чисто и звонко), а вовсю использует дисторшн и сустэйн, и по этой причине его альбомы рекомендуются и поклонникам фьюжн - satisfaction guaranteed. В общем, если на этом альбоме заменить гитару саксофоном, то получится вполне традиционный боп; если то же самое проделать на более поздних - выйдет что-то вроде позднего Колтрейна, но в гитаре тут вся соль, она радикально меняет звуковую картину и размывает все жанровые границы. Ко всему прочему, ТМ занимается всякими духовными практиками, о точном содержании которых знает он сам, но в музыке это отчётливо слышно. У меня есть восемь его альбомов, сегодня первая серия.
Death Is A Friend Of Mine is a double CD recorded in 1996 with a wide variety of fearless original compositions and musical concepts, as well as creative interpretations of standards by Miles Davis and John Coltrane. In addition to playing the guitar, keyboard synths and hand drums, Tisziji plays one fiery piece on the quinto, the traditional stringed instrument of Puerto Rico.
This recording features brilliant improvising by Bernie Senensky on piano, Don Pate on bass and Bob Moses on drums.
(Victor Feldman & Miles Davis) - 1.1
(Miles Davis) - 1.2
(Tisziji Munoz) - 1.3, 1.4, 1.5, 1.6, 2.1, 2.5, 2.6
(Michel Legrand) - 2.2
(Antonio Carlos Jobim & Luis Oliviera) - 2.3
(John Coltrane) - 2.4
(J. Mandel & J. Mercer) - 2.7
Produced by Tisziji Munoz
Art Direction by Tisziji Munoz
Cover art Sama-dhani
Photo of Tisziji with the Quinto constructed by cousin, William Del Pilar, at Niagara Falls, NY by Nancy Munoz
Recorded on June 6, 1996 at Cottonhill Recording Studios, Albany, NY
Engineered by Tisziji and Mike Munoz
Assistant engineers: Nancy and Rebazar Munoz
 
Состав
Tisziji Munoz: Guitar, Keyboard Synths, Quinto and Hand Drums
Bernie Senensky: Piano
Don Pate: Bass
Bob Moses: Drums
Any questions -> support@pro-jazz.com. По всем вопросам пишите -> support@pro-jazz.com
19:57
166
Нет комментариев. Ваш будет первым!