Вы используете незарегистрированную версию компонента "Вкладки"!

Поиск

(Free Jazz, Free Improvisation) Tony Bevan, Chris Corsano, Dominic Lash - Monster Club - 2008, FLAC (tracks+.cue), lossless

Треклист:
Tony Bevan, Chris Corsano, Dominic Lash / Monster Club
Жанр: Free Jazz, Free Improvisation
Страна-производитель диска: UK
Год издания диска: 2008
Издатель (лейбл): Foghorn Records
Номер по каталогу: FOGCD010
Аудиокодек: FLAC (*.flac)
Тип рипа: tracks+.cue
Битрейт аудио: lossless
Продолжительность: 50:23
Источник (релизер): вот сиди
Наличие сканов в содержимом раздачи: да
Треклист:
1. I think that will be ok... 2:33
2. Monster Club 9:42
3. This is Murder 31:28
4. You're telling me! 6:40
 
Лог создания рипа
Exact Audio Copy V0.99 prebeta 5 from 4. May 2009
EAC extraction logfile from 15. April 2011, 12:52
Tony Bevan, Chris Corsano, Dominic Lash / Monster Club
Used drive : HL-DT-STDVDRAM GSA-4167B Adapter: 0 ID: 0
Read mode : Secure
Utilize accurate stream : Yes
Defeat audio cache : Yes
Make use of C2 pointers : No
Read offset correction : 667
Overread into Lead-In and Lead-Out : No
Fill up missing offset samples with silence : Yes
Delete leading and trailing silent blocks : No
Null samples used in CRC calculations : Yes
Used interface : Installed external ASPI interface
Gap handling : Appended to previous track
Used output format : User Defined Encoder
Selected bitrate : 768 kBit/s
Quality : High
Add ID3 tag : No
Command line compressor : C:\Program Files\Exact Audio Copy\FLAC\FLAC.EXE
Additional command line options : -V -8 -T "artist=%a" -T "title=%t" -T "album=%g" -T "date=%y" -T "tracknumber=%n" -T "genre=%m" %s
TOC of the extracted CD
Track | Start | Length | Start sector | End sector
---------------------------------------------------------
1 | 0:00.00 | 2:33.29 | 0 | 11503
2 | 2:33.29 | 9:41.56 | 11504 | 55134
3 | 12:15.10 | 31:28.09 | 55135 | 196743
4 | 43:43.19 | 6:40.22 | 196744 | 226765
Track 1
Filename Q:\Rips\Tony Bevan, Chris Corsano, Dominic Lash - Monster Club\01 - Tony Bevan, Chris Corsano, Dominic Lash - I Think That'll Be OK.wav
Pre-gap length 0:00:02.00
Peak level 94.4 %
Track quality 100.0 %
Test CRC 2E4EE38F
Copy CRC 2E4EE38F
Track not present in AccurateRip database
Copy OK
Track 2
Filename Q:\Rips\Tony Bevan, Chris Corsano, Dominic Lash - Monster Club\02 - Tony Bevan, Chris Corsano, Dominic Lash - Monster Club.wav
Pre-gap length 0:00:05.00
Peak level 94.4 %
Track quality 99.9 %
Test CRC 6628BC96
Copy CRC 6628BC96
Track not present in AccurateRip database
Copy OK
Track 3
Filename Q:\Rips\Tony Bevan, Chris Corsano, Dominic Lash - Monster Club\03 - Tony Bevan, Chris Corsano, Dominic Lash - This Is Murder.wav
Pre-gap length 0:00:05.00
Peak level 94.4 %
Track quality 99.9 %
Test CRC 9A01DA0E
Copy CRC 9A01DA0E
Track not present in AccurateRip database
Copy OK
Track 4
Filename Q:\Rips\Tony Bevan, Chris Corsano, Dominic Lash - Monster Club\04 - Tony Bevan, Chris Corsano, Dominic Lash - You're Telling Me.wav
Pre-gap length 0:00:05.00
Peak level 94.4 %
Track quality 100.0 %
Test CRC 15F19AEF
Copy CRC 15F19AEF
Track not present in AccurateRip database
Copy OK
None of the tracks are present in the AccurateRip database
No errors occurred
End of status report
 
Содержание индексной карты (.CUE)
REM GENRE Jazz
REM DATE 2009
REM DISCID 2D0BCF04
REM COMMENT "ExactAudioCopy v0.99pb5"
PERFORMER "Tony Bevan, Chris Corsano, Dominic Lash"
TITLE "Monster Club"
FILE "01 - Tony Bevan, Chris Corsano, Dominic Lash - I Think That'll Be OK.wav" WAVE
TRACK 01 AUDIO
TITLE "I Think That'll Be OK"
PERFORMER "Tony Bevan, Chris Corsano, Dominic Lash"
INDEX 01 00:00:00
TRACK 02 AUDIO
TITLE "Monster Club"
PERFORMER "Tony Bevan, Chris Corsano, Dominic Lash"
INDEX 00 02:28:29
FILE "02 - Tony Bevan, Chris Corsano, Dominic Lash - Monster Club.wav" WAVE
INDEX 01 00:00:00
TRACK 03 AUDIO
TITLE "This Is Murder"
PERFORMER "Tony Bevan, Chris Corsano, Dominic Lash"
INDEX 00 09:36:56
FILE "03 - Tony Bevan, Chris Corsano, Dominic Lash - This Is Murder.wav" WAVE
INDEX 01 00:00:00
TRACK 04 AUDIO
TITLE "You're Telling Me"
PERFORMER "Tony Bevan, Chris Corsano, Dominic Lash"
INDEX 00 31:23:09
FILE "04 - Tony Bevan, Chris Corsano, Dominic Lash - You're Telling Me.wav" WAVE
INDEX 01 00:00:00
Доп. информация: Recorded live at "The Wheatsheaf", Oxford, England by Chris Trent on July 6, 2008.
 
Состав
Tony Bevan-Soprano, Tenor and Bass Saxophones
Chris Corsano-Drums and Percussion
Dominic Lash-Double Bass
По всем вопросам пишите личное сообщение пользователю M0p94ok.
13:37
215
Нет комментариев. Ваш будет первым!