Вы используете незарегистрированную версию компонента "Вкладки"!

Поиск

(Free Jazz, Avant-Garde) Steve Lacy, Roswell Rudd, Kent Carter, Beaver Harris - Trickles {Black Saint 120008-2, Italy} - 1976, APE (image+.cue) lossless

(Free Jazz, Avant-Garde) Steve Lacy, Roswell Rudd, Kent Carter, Beaver Harris - Trickles {Black Saint 120008-2, Italy} - 1976, APE (image+.cue) lossless
Треклист:
Steve Lacy, Roswell Rudd, Kent Carter, Beaver Harris - Trickles
Жанр: Free Jazz, Avant-Garde
Страна-производитель диска: Italy
Год издания диска: 1976
Издатель (лейбл): Black Saint
Номер по каталогу: 120008-2
Аудио кодек: APE (*.ape)
Тип рипа: image+.cue
Битрейт аудио: lossless
Продолжительность: 00:40:21
Источник (релизер): barin99
Наличие сканов в содержимом раздачи: да
Треклист:
1. Trickles 10:20
2. I Feel a Draught 4:27
3. The Bite 6:53
4. Papa's Midnite Hop 8:09
5. Robes 10:33
Recorded on March 11 and 14, 1976 at Generation Sound Studios, New York City.
Personnel:
Steve Lacy — Sax (Soprano)
Roswell Rudd — Trombone, Chimes
Kent Carter — Bass
Beaver Harris — Drums
 
Лог создания рипа (EAC Log)
Exact Audio Copy V0.99 prebeta 4 from 23. January 2008
EAC extraction logfile from 16. July 2009, 18:49
Steve Lacy-Kent Carter-Roswell Rudd-Beaver Harris / Trickles
Used drive : HL-DT-STRW/DVD GCC-4242N Adapter: 1 ID: 0
Read mode : Secure
Utilize accurate stream : Yes
Defeat audio cache : Yes
Make use of C2 pointers : No
Read offset correction : 102
Overread into Lead-In and Lead-Out : No
Fill up missing offset samples with silence : Yes
Delete leading and trailing silent blocks : No
Null samples used in CRC calculations : Yes
Used interface : Native Win32 interface for Win NT & 2000
Used output format : Internal WAV Routines
Sample format : 44.100 Hz; 16 Bit; Stereo
TOC of the extracted CD
Track | Start | Length | Start sector | End sector
---------------------------------------------------------
1 | 0:00.33 | 10:20.00 | 33 | 46532
2 | 10:20.33 | 4:27.00 | 46533 | 66557
3 | 14:47.33 | 6:53.00 | 66558 | 97532
4 | 21:40.33 | 8:09.00 | 97533 | 134207
5 | 29:49.33 | 10:33.00 | 134208 | 181682
Range status and errors
Selected range
Filename C:\_\EAC_Out\Out\Steve Lacy Kent Carter Roswell Rudd Beaver Harris - Trickles\Steve Lacy Kent Carter Roswell Rudd Beaver Harris - Trickles.wav
Peak level 100.0 %
Range quality 100.0 %
Copy CRC A341976C
Copy OK
No errors occurred
AccurateRip summary
Track 1 accurately ripped (confidence 1) [8716448E]
Track 2 accurately ripped (confidence 1) [13BCEDF6]
Track 3 accurately ripped (confidence 1) [FC00060F]
Track 4 accurately ripped (confidence 1) [7A9062D5]
Track 5 accurately ripped (confidence 1) [37DB078C]
All tracks accurately ripped
End of status report
 
Содержание индексной карты (.CUE)
REM GENRE Jazz
REM DATE 1976
REM DISCID 3D097605
REM COMMENT "ExactAudioCopy v0.99pb4"
PERFORMER "Steve Lacy-Kent Carter-Roswell Rudd-Beaver Harris"
TITLE "Trickles"
FILE "Steve Lacy Kent Carter Roswell Rudd Beaver Harris - Trickles.ape" WAVE
TRACK 01 AUDIO
TITLE "Trickles"
PERFORMER "Steve Lacy-Kent Carter-Roswell Rudd-Beaver Harris"
INDEX 00 00:00:00
INDEX 01 00:00:33
TRACK 02 AUDIO
TITLE "I Feel A Draught"
PERFORMER "Steve Lacy-Kent Carter-Roswell Rudd-Beaver Harris"
INDEX 01 10:20:33
TRACK 03 AUDIO
TITLE "The Bite"
PERFORMER "Steve Lacy-Kent Carter-Roswell Rudd-Beaver Harris"
INDEX 01 14:47:33
TRACK 04 AUDIO
TITLE "Papa's Midnight Hop"
PERFORMER "Steve Lacy-Kent Carter-Roswell Rudd-Beaver Harris"
INDEX 01 21:40:33
TRACK 05 AUDIO
TITLE "Robes"
PERFORMER "Steve Lacy-Kent Carter-Roswell Rudd-Beaver Harris"
INDEX 01 29:49:33
 
AMG
"One of the early Black Saint albums, this set features a reunion between soprano saxophonist Steve Lacy and trombonist Roswell Rudd; bassist Ken Carter and drummer Beaver Harris complete the quartet. Although Lacy and Rudd had had a group 15 years earlier that exclusively played Thelonious Monk tunes, in this case they perform five of Lacy's diverse originals, stretching themselves on such tunes as "Trickles" and "Robes." The music is less melodic than expected but does have its moments of interest."
По всем вопросам пишите личное сообщение пользователю M0p94ok.
13:37
219
Нет комментариев. Ваш будет первым!