Вы используете незарегистрированную версию компонента "Вкладки"!

Поиск

(Free Jazz, Avant-Garde, Saxophone Jazz) Frank Lowe - The Flam - 1975, APE (image+.cue), lossless

Треклист:
Frank Lowe / The Flam
Жанр: Free Jazz, Avant-Garde, Saxophone Jazz
Год издания диска: 1975
Издатель (лейбл): Black Saint
Номер по каталогу: #120005-2
Страна: US Memphis, TN
Аудиокодек: APE (*.ape)
Тип рипа: image+.cue
Битрейт аудио: lossless
Продолжительность: 00:47:37
Источник (релизер): nnm(barin99)
Наличие сканов в содержимом раздачи: да
Треклист:
01. Sun Voyage [7:35]
02. Flam [14:03]
03. Be-Bo-Bo-Be [10:53]
04. Third St. Stomp [10:21]
05. U.B.O. [0:45]
 
Лог создания рипа
Exact Audio Copy V0.99 prebeta 5 from 4. May 2009
EAC extraction logfile from 19. June 2010, 20:50
Frank Lowe / The Flam
Used drive : TSSTcorpDVD+-RW TS-U633A Adapter: 0 ID: 1
Read mode : Secure
Utilize accurate stream : Yes
Defeat audio cache : Yes
Make use of C2 pointers : No
Read offset correction : 6
Overread into Lead-In and Lead-Out : No
Fill up missing offset samples with silence : Yes
Delete leading and trailing silent blocks : No
Null samples used in CRC calculations : Yes
Used interface : Native Win32 interface for Win NT & 2000
Used output format : Internal WAV Routines
Sample format : 44.100 Hz; 16 Bit; Stereo
TOC of the extracted CD
Track | Start | Length | Start sector | End sector
---------------------------------------------------------
1 | 0:00.33 | 7:42.00 | 33 | 34682
2 | 7:42.33 | 14:07.37 | 34683 | 98244
3 | 21:49.70 | 10:57.25 | 98245 | 147544
4 | 32:47.20 | 10:31.38 | 147545 | 194907
5 | 43:18.58 | 0:51.50 | 194908 | 198782
Range status and errors
Selected range
Filename C:\_Arc\EAC_Out\Frank Lowe - The Flam\Frank Lowe - The Flam.wav
Peak level 100.0 %
Range quality 100.0 %
Copy CRC DE1ED588
Copy OK
No errors occurred
AccurateRip summary
Track 1 cannot be verified as accurate (confidence 1) [68897997], AccurateRip returned [8B1B846D]
Track 2 cannot be verified as accurate (confidence 1) [1E6D3192], AccurateRip returned [66FA6443]
Track 3 cannot be verified as accurate (confidence 1) [9BB6F771], AccurateRip returned [D03A36C8]
Track 4 cannot be verified as accurate (confidence 1) [8403024F], AccurateRip returned [355882AA]
Track 5 cannot be verified as accurate (confidence 1) [3AC6FA54], AccurateRip returned [CDEE783B]
No tracks could be verified as accurate
You may have a different pressing from the one(s) in the database
End of status report
 
Содержание индексной карты (.CUE)
REM GENRE Jazz
REM DATE 1975
REM DISCID 370A5A05
REM COMMENT "ExactAudioCopy v0.99pb5"
PERFORMER "Frank Lowe"
TITLE "The Flam"
FILE "Frank Lowe - The Flam.wav" WAVE
TRACK 01 AUDIO
TITLE "Sun Voyage"
PERFORMER "Frank Lowe"
INDEX 00 00:00:00
INDEX 01 00:00:33
TRACK 02 AUDIO
TITLE "Falm"
PERFORMER "Frank Lowe"
INDEX 01 07:42:33
TRACK 03 AUDIO
TITLE "Be-Bo-Bo-Be"
PERFORMER "Frank Lowe"
INDEX 01 21:49:70
TRACK 04 AUDIO
TITLE "Third St Stomp"
PERFORMER "Frank Lowe"
INDEX 01 32:47:20
TRACK 05 AUDIO
TITLE "UBP"
PERFORMER "Frank Lowe"
INDEX 01 43:18:58
 
Об исполнителе (группе)
by Steve Huey
Avant-garde tenor saxophonist Frank Lowe evolved over the years from an unrestrained, free-blowing energy player into a versatile, multi-hued improviser who nonetheless remained underground for most of his career. Born in Memphis in 1943, Lowe began playing tenor at age 12, studied at the San Francisco Conservatory, and moved to New York in the mid-'60s at the height of the New Thing. He gigged with Sun Ra from 1966-1968, and recorded in the early '70s with Alice Coltrane, Noah Howard, and drummer Rashied Ali (the two made a duet album, Duo Exchange, in 1973). As a leader, Lowe debuted in 1973 with the classic ESP-label blowout Black Beings, which also featured Joseph Jarman; the follow-up Fresh appeared on Arista/Freedom. During this period, Lowe played with Don Cherry, appearing on landmark world-fusion efforts like Relativity Suite and Brown Rice. Soon after recording The Flam for Black Saint in 1975, Lowe moved to Paris for about a year, and would return to Europe frequently. Lowe's recordings began to grow more eclectic in the late '70s and early '80s: Don't Punk Out was a duo with guitarist Eugene Chadbourne; Lowe and Behold featured an 11-piece orchestra; and Skizoke was a surprisingly subtle, straight-ahead outing. Lowe also began a long association with violinist Billy Bang in the late '70s, frequently collaborating in the Jazz Doctors. After the early '80s, Lowe didn't record much for a while, returning on 1991's Inappropriate Choices with a four-reed ensemble dubbed the Saxemple. The group soon expanded to six reeds and was renamed SaxEmble for its eponymous 1995 debut album. Meanwhile, Lowe recorded some immensely rewarding albums for CIMP, including 1995's Bodies and Soul and 1997's Vision Blue; he also recorded with Joe McPhee in 1996. In 2000, Lowedelivered Short Takes, a series of duets with bassist Bernard Santacruz, for the French Bleu Regard label. Lowe struggled with cancer for several years, but still managed to record, appearing on Billy Bang's Vietnam: the Aftermath (2001) and Jane Cortez's Borders of Disorderly Time (2003), as well as another date as leader for CIMP, Lowe-Down & Blue (2003). The CIMP album would prove to be his last, Frank Lowe passed away quietly at his home in New York on September 19, 2003 at the age of 60.
 
Об альбоме (сборнике)
by Scott Yanow
On this free jazz date the powerful tenor Frank Lowe teams up with trumpeter Leo Smith, trombonist Joseph Bowie, bassist Alex Blake and drummer Charles Bobo Shaw for five group originals including the collaboration "Third St. Stomp." The very explorative and rather emotional music holds one's interest throughout. These often heated performances are better heard than described.
 
Состав
frank lowe, leo smith, joseph bowie, alex blake, charles bobo shaw
По всем вопросам пишите личное сообщение пользователю M0p94ok.
13:38
264
Нет комментариев. Ваш будет первым!