Поиск

(Hard Bop) John Coltrane - A Love Supreme - 1964, FLAC (tracks+.cue), lossless

Треклист:
John Coltrane / A Love Supreme
Жанр: Hard Bop
Год издания диска: 1964
Страна: U.S.
Аудиокодек: FLAC (*.flac)
Тип рипа: tracks+.cue
Битрейт аудио: lossless
Продолжительность: 33:07
Источник (релизер): eMule
Наличие сканов в содержимом раздачи: нет
Треклист:
01. A Love Supreme Part 1: Acknowledgement (7:47)
02. A Love Supreme Part 2: Resolution (7:27)
03. A Love Supreme Part 3: Pursuance \ Part 4: Psalm (17:53)
 
Лог создания рипа
Exact Audio Copy V0.99 prebeta 5 from 4. May 2009
EAC extraction logfile from 2. September 2010, 22:40
John Coltrane / A Love Supreme
Used drive : ATAPI iHAS124 B Adapter: 2 ID: 1
Read mode : Secure
Utilize accurate stream : Yes
Defeat audio cache : Yes
Make use of C2 pointers : No
Read offset correction : 6
Overread into Lead-In and Lead-Out : No
Fill up missing offset samples with silence : Yes
Delete leading and trailing silent blocks : No
Null samples used in CRC calculations : Yes
Used interface : Native Win32 interface for Win NT & 2000
Gap handling : Appended to previous track
Used output format : User Defined Encoder
Selected bitrate : 320 kBit/s
Quality : High
Add ID3 tag : No
Command line compressor : C:\Program Files (x86)\Exact Audio Copy\Flac\flac.exe
Additional command line options : -V -8 -T "artist=%a" -T "title=%t" -T "album=%g" -T "date=%y" -T "tracknumber=%n" -T "genre=%m" %s
TOC of the extracted CD
Track | Start | Length | Start sector | End sector
---------------------------------------------------------
1 | 0:00.37 | 7:47.13 | 37 | 35074
2 | 7:47.50 | 7:26.50 | 35075 | 68574
3 | 15:14.25 | 17:52.52 | 68575 | 149026
Track 1
Filename C:\EAC\John Coltrane - A Love Supreme (1964)\01 Part 1 - Acknowledgement.wav
Pre-gap length 0:00:02.37
Peak level 72.6 %
Track quality 100.0 %
Test CRC 4B768EEC
Copy CRC 4B768EEC
Accurately ripped (confidence 3) [8E449061]
Copy OK
Track 2
Filename C:\EAC\John Coltrane - A Love Supreme (1964)\02 Part 2 - Resolution.wav
Peak level 76.4 %
Track quality 100.0 %
Test CRC 217537AD
Copy CRC 217537AD
Accurately ripped (confidence 3) [64FC2342]
Copy OK
Track 3
Filename C:\EAC\John Coltrane - A Love Supreme (1964)\03 Part 3 - Pursuance, Part 4 - Psalm.wav
Pre-gap length 0:00:01.38
Peak level 79.4 %
Track quality 100.0 %
Test CRC E5064580
Copy CRC E5064580
Accurately ripped (confidence 3) [9E03C825]
Copy OK
All tracks accurately ripped
No errors occurred
End of status report
 
Содержание индексной карты (.CUE)
REM GENRE Jazz
REM DATE 1964
REM DISCID 2507C303
REM COMMENT "ExactAudioCopy v0.99pb5"
FILE "01 Part 1 - Acknowledgement.wav" WAVE
TRACK 01 AUDIO
PREGAP 00:00:37
INDEX 01 00:00:00
FILE "02 Part 2 - Resolution.wav" WAVE
TRACK 02 AUDIO
INDEX 01 00:00:00
TRACK 03 AUDIO
INDEX 00 07:25:12
FILE "03 Part 3 - Pursuance, Part 4 - Psalm.wav" WAVE
INDEX 01 00:00:00
 
Лог проверки качества
-----------------------
DON'T MODIFY THIS FILE
-----------------------
PERFORMER: auCDtect Task Manager, ver. 1.0.3 B1 build 1.0.3.0
Copyright (c) 2008, 2009 y-soft. All rights reserved
http://y-soft.110mb.com
ANALYZER: auCDtect: CD records authenticity detector, version 0.8.2
Copyright (c) 2004 Oleg Berngardt. All rights reserved.
Copyright (c) 2004 Alexander Djourik. All rights reserved.
FILE: 02 Part 2 - Resolution.flac
Size: 49661878 Hash: 6BF7B7BDBE7FC7BE9FD53984BF11E96A Accuracy: -m0
Conclusion: CDDA 100%
Signature: 409570C9993951F34B492AF2A421F02D7364E8DB
FILE: 01 Part 1 - Acknowledgement.flac
Size: 48311713 Hash: 2FAAA09B53985B68E2B0089A83B4B491 Accuracy: -m0
Conclusion: CDDA 100%
Signature: 085D9FE0442E1DB9DE7C4C7FD6F2820EC8A2AD1E
FILE: 03 Part 3 - Pursuance, Part 4 - Psalm.flac
Size: 100658402 Hash: B5A906FB571750E2B0101097DE4D061E Accuracy: -m0
Conclusion: CDDA 100%
Signature: C3C317EC851F0E8B021ABCFC16510F8D77CC29A2
Доп. информация: Отличие от других раздач в TOC и CRC.
По всем вопросам пишите личное сообщение пользователю M0p94ok.
13:39
724
Нет комментариев. Ваш будет первым!