Вы используете незарегистрированную версию компонента "Вкладки"!

Поиск

(Free Jazz, Free Improvisation) The Giancarlo Nicolai Trio - and John Tchicai - 1997, FLAC (image+.cue), lossless

(Free Jazz, Free Improvisation) The Giancarlo Nicolai Trio - and John Tchicai - 1997, FLAC (image+.cue), lossless
Треклист:
The Giancarlo Nicolai Trio / and John Tchicai
Жанр: Free Jazz, Free Improvisation
Страна-производитель диска: UK
Год издания: 1997
Издатель (лейбл): Leo Records
Номер по каталогу: CD LR 164
Аудиокодек: FLAC (*.flac)
Тип рипа: image+.cue
Битрейт аудио: lossless
Продолжительность: 58:55
Источник (релизер): cd
Наличие сканов в содержимом раздачи: нет
Треклист:
1 Mushi Miyake 8:53
2 Nu Skal Du Komme 3:53
3 Puppetboy 4:54
4 Trilogia 22:45
5 Puppetdreams 18:28
 
Лог создания рипа
Exact Audio Copy V1.0 beta 2 from 29. April 2011
EAC extraction logfile from 1. October 2013, 16:17
The Giancario Nicolai Trio / and John Tchicai
Used drive : Optiarc DVD RW AD-7170A Adapter: 0 ID: 0
Read mode : Secure
Utilize accurate stream : Yes
Defeat audio cache : Yes
Make use of C2 pointers : No
Read offset correction : 48
Overread into Lead-In and Lead-Out : No
Fill up missing offset samples with silence : Yes
Delete leading and trailing silent blocks : No
Null samples used in CRC calculations : Yes
Used interface : Native Win32 interface for Win NT & 2000
Used output format : User Defined Encoder
Selected bitrate : 320 kBit/s
Quality : High
Add ID3 tag : No
Command line compressor : C:\Program Files\Exact Audio Copy\Flac\flac.exe
Additional command line options : -V -8 -T "Date=%year%" -T "Genre=%genre%" %source%
TOC of the extracted CD
Track | Start | Length | Start sector | End sector
---------------------------------------------------------
1 | 0:00.00 | 8:53.25 | 0 | 39999
2 | 8:53.25 | 3:53.42 | 40000 | 57516
3 | 12:46.67 | 4:54.18 | 57517 | 79584
4 | 17:41.10 | 22:45.12 | 79585 | 181971
5 | 40:26.22 | 18:28.55 | 181972 | 265126
Range status and errors
Selected range
Filename K:\ЕАС\The Giancario Nicolai Trio - and John Tchicai.wav
Peak level 85.6 %
Extraction speed 1.7 X
Range quality 99.9 %
Test CRC 35E70836
Copy CRC 35E70836
Copy OK
No errors occurred
AccurateRip summary
Track 1 accurately ripped (confidence 2) [4C3B002D] (AR v2)
Track 2 accurately ripped (confidence 2) [C841B8D6] (AR v2)
Track 3 accurately ripped (confidence 2) [23179679] (AR v2)
Track 4 accurately ripped (confidence 2) [7761CDE6] (AR v2)
Track 5 accurately ripped (confidence 2) [C04E5526] (AR v2)
All tracks accurately ripped
End of status report
==== Log checksum 53AB2F215D7551C4BC19A94B15A03F62232161EED38DECEDBF9FA458EB33265F ====
 
Содержание индексной карты (.CUE)
REM GENRE Jazz
REM DATE 1997
REM DISCID 3E0DCF05
REM COMMENT "ExactAudioCopy v1.0b2"
CATALOG 0000000000000
PERFORMER "The Giancario Nicolai Trio"
TITLE "and John Tchicai"
FILE "The Giancario Nicolai Trio - and John Tchicai.flac" WAVE
TRACK 01 AUDIO
TITLE "Mushi Miyake"
PERFORMER "The Giancario Nicolai Trio"
ISRC 000000000000
INDEX 01 00:00:00
TRACK 02 AUDIO
TITLE "Nu Skal du Komme"
PERFORMER "The Giancario Nicolai Trio"
ISRC 000000000000
INDEX 01 08:53:25
TRACK 03 AUDIO
TITLE "Puppetboy"
PERFORMER "The Giancario Nicolai Trio"
ISRC 000000000000
INDEX 01 12:46:67
TRACK 04 AUDIO
TITLE "Trilogia"
PERFORMER "The Giancario Nicolai Trio"
ISRC 000000000000
INDEX 01 17:41:10
TRACK 05 AUDIO
TITLE "Puppetdreams"
PERFORMER "The Giancario Nicolai Trio"
ISRC 000000000000
INDEX 01 40:26:22
Доп. информация: Recorded on July 1986 & 14 November 1987 at Radio Studio Zürich except track 5, recorded July 1988
 
Состав
Double Bass – Thomas Durst
Drums – Uelli Müller
Guitar – Giancarlo Nicolai
Saxophone [Saxophones] – John Tchicai
Any questions -> support@pro-jazz.com. По всем вопросам пишите -> support@pro-jazz.com
18:42
109
Нет комментариев. Ваш будет первым!