Вы используете незарегистрированную версию компонента "Вкладки"!

Поиск

(Free Improvisation, Plainisphare) Rene Bottlang & Mal Waldron - The Lausanne Concert - 1988, FLAC (tracks+.cue), lossless

(Free Improvisation, Plainisphare) Rene Bottlang & Mal Waldron - The Lausanne Concert - 1988, FLAC (tracks+.cue), lossless
Треклист:
René Bottlang & Mal Waldron / The Lausanne Concert
Жанр: Free Improvisation, Plainisphare
Страна-производитель диска: Switzerland
Год издания: 1988
Издатель (лейбл): Plainisphare
Номер по каталогу: PL 1267-39 CD
Аудиокодек: FLAC (*.flac)
Тип рипа: tracks+.cue
Битрейт аудио: lossless
Продолжительность: 1:02:46
Источник (релизер): Max Monteiro
Наличие сканов в содержимом раздачи: нет
Треклист:
1. Part One (Mon amour retrouvé {René Bottlang} / Soliloquy {Mal Waldron} / Evidence {Thelonious Monk})
2. Part Two (C’est la vie {René Bottlang} / A Bow to Classics {Mal Waldron} / Giulia (parce qu’elle est seule) {René Bottlang})
3. Bis (Epistrophy {Thelonious Monk})
Enregistré en public au Casino de Montbenon, Lausanne (Suisse) le 20 décembre 1987.
René Bottlang – piano
Mal Waldron – piano
 
Лог создания рипа
Exact Audio Copy V1.0 beta 3 from 29. August 2011
EAC extraction logfile from 2. October 2013, 17:23
René Bottlang & Mal Waldron / The Lausanne Concert
Used drive : SlimtypeeNAU508 5 Adapter: 1 ID: 0
Read mode : Secure
Utilize accurate stream : Yes
Defeat audio cache : Yes
Make use of C2 pointers : No
Read offset correction : 6
Overread into Lead-In and Lead-Out : No
Fill up missing offset samples with silence : Yes
Delete leading and trailing silent blocks : No
Null samples used in CRC calculations : Yes
Used interface : Native Win32 interface for Win NT & 2000
Gap handling : Appended to previous track
Used output format : User Defined Encoder
Selected bitrate : 768 kBit/s
Quality : High
Add ID3 tag : No
Command line compressor : C:\Program Files (x86)\Exact Audio Copy\Flac\flac.exe
Additional command line options : -8 -V -T "ARTIST=%artist%" -T "TITLE=%title%" -T "ALBUM=%albumtitle%" -T "DATE=%year%" -T "TRACKNUMBER=%tracknr%" -T "GENRE=%genre%" -T "PERFORMER=%albuminterpret%" -T "COMPOSER=%composer%" %haslyrics%--tag-from-file=LYRICS="%lyricsfile%"%haslyrics% -T "ALBUMARTIST=%albumartist%" -T "DISCNUMBER=%cdnumber%" -T "TOTALDISCS=%totalcds%" -T "TOTALTRACKS=%numtracks%" -T "COMMENT=%comment%" %source% -o %dest%
TOC of the extracted CD
Track | Start | Length | Start sector | End sector
---------------------------------------------------------
1 | 0:00.00 | 27:51.12 | 0 | 125336
2 | 27:51.12 | 27:20.00 | 125337 | 248336
3 | 55:11.12 | 7:34.63 | 248337 | 282449
Track 1
Filename C:\EAC rips\01 - Part One (Mon amour retrouvé - Soliloquy - Evidence).wav
Pre-gap length 0:00:02.00
Peak level 85.7 %
Extraction speed 3.2 X
Track quality 100.0 %
Test CRC D65685CE
Copy CRC D65685CE
Accurately ripped (confidence 3) [B7355CEF] (AR v1)
Copy OK
Track 2
Filename C:\EAC rips\02 - Part Two (C'est la vie - A Bow to Classics - Giulia [parce qu'elle est seule]).wav
Pre-gap length 0:00:36.17
Peak level 96.2 %
Extraction speed 4.5 X
Track quality 100.0 %
Test CRC CFDCB96E
Copy CRC CFDCB96E
Accurately ripped (confidence 3) [70A0F199] (AR v1)
Copy OK
Track 3
Filename C:\EAC rips\03 - Bis (Epistrophy).wav
Pre-gap length 0:01:15.50
Peak level 60.0 %
Extraction speed 4.3 X
Track quality 99.9 %
Test CRC 8A26A68D
Copy CRC 8A26A68D
Accurately ripped (confidence 3) [93ED733B] (AR v1)
Copy OK
All tracks accurately ripped
No errors occurred
End of status report
---- CUETools DB Plugin V2.1.4
[CTDB TOCID: CMuJxCfPxp3QPznrLipxT0F.InQ-] disk not present in database
Submit result: La demande a été abandonnée : La demande a été annulée.
==== Log checksum 1F58D8872A6061EB4D64D3DAFD63848022C61F65C3A332AAD6DFF506B70D31C8 ====
 
Содержание индексной карты (.CUE)
REM GENRE Jazz
REM DATE 1987
REM DISCID 1D0EB603
REM COMMENT "ExactAudioCopy v1.0b3"
PERFORMER "René Bottlang & Mal Waldron"
TITLE "The Lausanne Concert"
FILE "01 - Part One (Mon amour retrouvé - Soliloquy - Evidence).wav" WAVE
TRACK 01 AUDIO
TITLE "Part One (Mon amour retrouvé / Soliloquy / Evidence)"
PERFORMER "René Bottlang & Mal Waldron"
INDEX 01 00:00:00
TRACK 02 AUDIO
TITLE "Part Two (C'est la vie / A Bow to Classics / Giulia [parce qu'elle est seule])"
PERFORMER "René Bottlang & Mal Waldron"
INDEX 00 27:14:70
FILE "02 - Part Two (C'est la vie - A Bow to Classics - Giulia [parce qu'elle est seule]).wav" WAVE
INDEX 01 00:00:00
TRACK 03 AUDIO
TITLE "Bis (Epistrophy)"
PERFORMER "René Bottlang & Mal Waldron"
INDEX 00 26:04:25
FILE "03 - Bis (Epistrophy).wav" WAVE
INDEX 01 00:00:00
Any questions -> support@pro-jazz.com. По всем вопросам пишите -> support@pro-jazz.com
18:43
121
Нет комментариев. Ваш будет первым!