Вы используете незарегистрированную версию компонента "Вкладки"!

Поиск

(Free Jazz, Free Improvisation) Collective 4tet (Heinz Geisser, Mark Hennen, Jeff Hoyer, William Parker) - The Ropedancer - 1996, FLAC (image+.cue), lossless

(Free Jazz, Free Improvisation) Collective 4tet (Heinz Geisser, Mark Hennen, Jeff Hoyer, William Parker) - The Ropedancer - 1996, FLAC (image+.cue), lossless
Треклист:
Collective 4tet / The Ropedancer
Жанр: Free Jazz, Free Improvisation
Страна-производитель диска: UK
Год издания: 1996
Издатель (лейбл): Leo Lab
Номер по каталогу: CD 021
Аудиокодек: FLAC (*.flac)
Тип рипа: image+.cue
Битрейт аудио: lossless
Продолжительность: 56:14
Источник (релизер): cd
Наличие сканов в содержимом раздачи: нет
Треклист:
1 Where We Go 6:53
2 Yoru No Konchutachi 9:30
3 The Ropedancer 14:25
4 Breakthrough 3:46
5 The Inner Game 8:34
6 Magic Stream 9:25
7 Toy Dance 3:25
 
Лог создания рипа
Exact Audio Copy V1.0 beta 2 from 29. April 2011
EAC extraction logfile from 1. October 2013, 17:31
Collective 4tet / The Ropedancer
Used drive : Optiarc DVD RW AD-7170A Adapter: 0 ID: 0
Read mode : Secure
Utilize accurate stream : Yes
Defeat audio cache : Yes
Make use of C2 pointers : No
Read offset correction : 48
Overread into Lead-In and Lead-Out : No
Fill up missing offset samples with silence : Yes
Delete leading and trailing silent blocks : No
Null samples used in CRC calculations : Yes
Used interface : Native Win32 interface for Win NT & 2000
Used output format : User Defined Encoder
Selected bitrate : 320 kBit/s
Quality : High
Add ID3 tag : No
Command line compressor : C:\Program Files\Exact Audio Copy\Flac\flac.exe
Additional command line options : -V -8 -T "Date=%year%" -T "Genre=%genre%" %source%
TOC of the extracted CD
Track | Start | Length | Start sector | End sector
---------------------------------------------------------
1 | 0:00.00 | 6:54.67 | 0 | 31116
2 | 6:54.67 | 9:34.00 | 31117 | 74166
3 | 16:28.67 | 14:27.58 | 74167 | 139249
4 | 30:56.50 | 3:47.45 | 139250 | 156319
5 | 34:44.20 | 8:36.67 | 156320 | 195086
6 | 43:21.12 | 9:25.23 | 195087 | 237484
7 | 52:46.35 | 3:27.42 | 237485 | 253051
Range status and errors
Selected range
Filename K:\ЕАС\Collective 4tet - The Ropedancer.wav
Peak level 99.4 %
Extraction speed 2.1 X
Range quality 100.0 %
Test CRC AE95C571
Copy CRC AE95C571
Copy OK
No errors occurred
AccurateRip summary
Track 1 accurately ripped (confidence 2) [21D26FC7] (AR v1)
Track 2 accurately ripped (confidence 2) [76DA1A0C] (AR v1)
Track 3 accurately ripped (confidence 2) [65E17E52] (AR v1)
Track 4 accurately ripped (confidence 2) [27D74CAA] (AR v1)
Track 5 accurately ripped (confidence 2) [3698E6D0] (AR v1)
Track 6 accurately ripped (confidence 2) [64B2F501] (AR v1)
Track 7 accurately ripped (confidence 2) [0F480E8B] (AR v1)
All tracks accurately ripped
End of status report
==== Log checksum C5825EF686826D9051D652C8BDC96548B28150E0D01516D957F3F5209022C166 ====
 
Содержание индексной карты (.CUE)
REM GENRE Jazz
REM DATE 1996
REM DISCID 620D2E07
REM COMMENT "ExactAudioCopy v1.0b2"
CATALOG 0000000000000
PERFORMER "Collective 4tet"
TITLE "The Ropedancer"
FILE "Collective 4tet - The Ropedancer.flac" WAVE
TRACK 01 AUDIO
TITLE "Where We Go"
PERFORMER "Collective 4tet"
ISRC 000000000000
INDEX 01 00:00:00
TRACK 02 AUDIO
TITLE "Yoru no Konchutachi"
PERFORMER "Collective 4tet"
ISRC 000000000000
INDEX 00 06:54:10
INDEX 01 06:54:67
TRACK 03 AUDIO
TITLE "The Ropedancer"
PERFORMER "Collective 4tet"
ISRC 000000000000
INDEX 00 16:28:02
INDEX 01 16:28:67
TRACK 04 AUDIO
TITLE "Breakthrough"
PERFORMER "Collective 4tet"
ISRC 000000000000
INDEX 00 30:55:70
INDEX 01 30:56:50
TRACK 05 AUDIO
TITLE "The Inner Game"
PERFORMER "Collective 4tet"
ISRC 000000000000
INDEX 00 34:42:42
INDEX 01 34:44:20
TRACK 06 AUDIO
TITLE "Magic Stream"
PERFORMER "Collective 4tet"
ISRC 000000000000
INDEX 00 43:18:20
INDEX 01 43:21:12
TRACK 07 AUDIO
TITLE "Toy Dance"
PERFORMER "Collective 4tet"
ISRC 000000000000
INDEX 00 52:45:67
INDEX 01 52:46:35
 
Состав
Bass – William Parker
Percussion – Heinz Geisser
Piano – Mark Hennen
Trombone – Jeff Hoyer
Any questions -> support@pro-jazz.com. По всем вопросам пишите -> support@pro-jazz.com
18:41
145
Нет комментариев. Ваш будет первым!