Вы используете незарегистрированную версию компонента "Вкладки"!

Поиск

(Free Jazz, Free Improvisation) The Feel Trio (Cecil Taylor, William Parker, Tony Oxley) - Looking (Berlin Version) - 1989, 2004, FLAC (tracks+.cue) lossless

(Free Jazz, Free Improvisation) The Feel Trio (Cecil Taylor, William Parker, Tony Oxley) - Looking (Berlin Version) - 1989, 2004, FLAC (tracks+.cue) lossless
Треклист:
The Feel Trio / Looking (Berlin Version)
Жанр: Free Jazz, Free Improvisation
Страна-производитель диска: Германия
Год издания диска: 1989, 2004
Издатель (лейбл): FMP
Номер по каталогу: FMP CD 25
Страна: США, Великобритания
Аудио кодек: FLAC (*.flac)
Тип рипа: tracks+.cue
Битрейт аудио: lossless
Продолжительность: 1:12:18
Источник (релизер): другой трекер (doughins)
Наличие сканов в содержимом раздачи: да
Треклист:
First part - 36:22
Second part - 5:05
Third part - 30:49
Recorded live on November 2nd, 1989 during the Total Music Meeting at the Quartier Latin in Berlin.
 
Лог создания рипа
EAC extraction logfile from 9. May 2009, 20:38 for CD
Cecil Taylor Feel Trio / Looking (Berlin Version)
Used drive : PBDS CDRWDVD DH-48C2S Adapter: 1 ID: 1
Read mode : Secure with NO C2, accurate stream, disable cache
Read offset correction : 6
Overread into Lead-In and Lead-Out : No
Used output format : C:\Program Files\FLAC\flac.exe (User Defined Encoder)
128 kBit/s
Additional command line options : -V -8 -T "artist=%a" -T "title=%t" -T "album=%g" -T "date=%y" -T "tracknumber=%n" -T "genre=%m" %s
Other options :
Fill up missing offset samples with silence : Yes
Delete leading and trailing silent blocks : No
Native Win32 interface for Win NT & 2000
Track 1
Filename D:\DOWNLOADS\_UPLOADS\Cecil Taylor Feel Trio - Looking (Berlin Version) (1989) [FLAC]\01 - first part.wav
Pre-gap length 0:00:02.00
Peak level 100.0 %
Track quality 100.0 %
Test CRC 172DA16D
Copy CRC 172DA16D
Copy OK
Track 2
Filename D:\DOWNLOADS\_UPLOADS\Cecil Taylor Feel Trio - Looking (Berlin Version) (1989) [FLAC]\02 - second part.wav
Peak level 72.8 %
Track quality 100.0 %
Test CRC 967FB5F6
Copy CRC 967FB5F6
Copy OK
Track 3
Filename D:\DOWNLOADS\_UPLOADS\Cecil Taylor Feel Trio - Looking (Berlin Version) (1989) [FLAC]\03 - third part.wav
Peak level 81.0 %
Track quality 100.0 %
Test CRC 04650840
Copy CRC 04650840
Copy OK
No errors occured
End of status report
 
Содержание индексной карты (.CUE)
REM GENRE Avantgarde
REM DATE 1989
REM DISCID 2010F103
REM COMMENT "ExactAudioCopy v0.95b3"
PERFORMER "Cecil Taylor Feel Trio"
TITLE "Looking (Berlin Version)"
FILE "Cecil Taylor Feel Trio - Looking (Berlin Version) (1989) [FLAC]\01 - first part.wav" WAVE
TRACK 01 AUDIO
TITLE "first part"
PERFORMER "Cecil Taylor Feel Trio"
INDEX 01 00:00:00
FILE "Cecil Taylor Feel Trio - Looking (Berlin Version) (1989) [FLAC]\02 - second part.wav" WAVE
TRACK 02 AUDIO
TITLE "second part"
PERFORMER "Cecil Taylor Feel Trio"
INDEX 01 00:00:00
FILE "Cecil Taylor Feel Trio - Looking (Berlin Version) (1989) [FLAC]\03 - third part.wav" WAVE
TRACK 03 AUDIO
TITLE "third part"
PERFORMER "Cecil Taylor Feel Trio"
INDEX 01 00:00:00
 
Лог проверки качества
AUDIOCHECKER v2.0 beta (build 457) - by Dester - opdester@freemail.hu
~~~~~~~~~~~~~~~~~~~~~~~~~~~~~~~~~~
-=== DO NOT EDIT THIS FILE! ===-
Path: ...\looking (berlin version) 1996
1 -=- 01 - first part.flac -=- CDDA (100%)
2 -=- 02 - second part.flac -=- CDDA (100%)
3 -=- 03 - third part.flac -=- CDDA (99%)
Summary 99,67% CDDA
64072548
 
Состав

Cecil Taylor - piano;
William Parker - double bass;
Tony Oxley - drums
вместо кривоватого рипа - http://rutracker.org/forum/viewtopic.php?t=2664254
Any questions -> support@pro-jazz.com. По всем вопросам пишите -> support@pro-jazz.com
09:45
137
Нет комментариев. Ваш будет первым!