Вы используете незарегистрированную версию компонента "Вкладки"!

Поиск

(Avant-Garde Jazz, Free-Jazz) Anthony Braxton Quartet - Birmingham - 1985, APE (image+.cue) lossless

(Avant-Garde Jazz, Free-Jazz) Anthony Braxton Quartet - Birmingham - 1985, APE (image+.cue) lossless
Треклист:
Anthony Braxton Quartet / Birmingham
Жанр: Avant-Garde Jazz, Free-Jazz
Страна-производитель диска: UK
Год издания диска: 1985
Издатель (лейбл): Leo Records
Номер по каталогу: LR 202/203
Аудио кодек: APE (*.ape)
Тип рипа: image+.cue
Битрейт аудио: lossless
Продолжительность: 45:10 + 47:11
Источник (релизер): basa005
Наличие сканов в содержимом раздачи: да
Треклист:
1-1 First Set 45:10
2-1 Second Set 44:26
2-2 Second Set Encore 2:45
 
Лог создания рипа

 
cd1
Exact Audio Copy V0.99 prebeta 4 from 23. January 2008
EAC extraction logfile from 15. March 2011, 15:10
Unknown Artist / Unknown Title
Used drive : ATAPI DVD A DH16A1L Adapter: 1 ID: 0
Read mode : Secure
Utilize accurate stream : Yes
Defeat audio cache : Yes
Make use of C2 pointers : No
Read offset correction : 6
Overread into Lead-In and Lead-Out : No
Fill up missing offset samples with silence : Yes
Delete leading and trailing silent blocks : No
Null samples used in CRC calculations : Yes
Used interface : Native Win32 interface for Win NT & 2000
Used output format : Internal WAV Routines
Sample format : 44.100 Hz; 16 Bit; Stereo
TOC of the extracted CD
Track | Start | Length | Start sector | End sector
---------------------------------------------------------
1 | 0:00.33 | 45:10.17 | 33 | 203299
Range status and errors
Selected range
Filename C:\avaxhome\Anthony Braxton Quartet - (Birmingham) 1985 - cd1.wav
Peak level 70.5 %
Range quality 99.9 %
Copy CRC C3BC85F6
Copy OK
No errors occurred
AccurateRip summary
Track 1 cannot be verified as accurate (confidence 2) [5E019214], AccurateRip returned [6618DE57]
No tracks could be verified as accurate
You may have a different pressing from the one(s) in the database
End of status report
 
cd2
Exact Audio Copy V0.99 prebeta 4 from 23. January 2008
EAC extraction logfile from 15. March 2011, 15:29
Anthony Braxton / Quartet (Birmingham) 1985
Used drive : ATAPI DVD A DH16A1L Adapter: 1 ID: 0
Read mode : Secure
Utilize accurate stream : Yes
Defeat audio cache : Yes
Make use of C2 pointers : No
Read offset correction : 6
Overread into Lead-In and Lead-Out : No
Fill up missing offset samples with silence : Yes
Delete leading and trailing silent blocks : No
Null samples used in CRC calculations : Yes
Used interface : Native Win32 interface for Win NT & 2000
Used output format : Internal WAV Routines
Sample format : 44.100 Hz; 16 Bit; Stereo
TOC of the extracted CD
Track | Start | Length | Start sector | End sector
---------------------------------------------------------
1 | 0:00.33 | 44:25.60 | 33 | 199967
2 | 44:26.18 | 2:45.07 | 199968 | 212349
Range status and errors
Selected range
Filename C:\avaxhome\Anthony Braxton Quartet - (Birmingham) 1985 - cd2.wav
Peak level 69.4 %
Range quality 100.0 %
Copy CRC F0C92936
Copy OK
No errors occurred
AccurateRip summary
Track 1 cannot be verified as accurate (confidence 3) [BA505C79], AccurateRip returned [1F56600E]
Track 2 cannot be verified as accurate (confidence 3) [219A8A4D], AccurateRip returned [8167D248]
No tracks could be verified as accurate
You may have a different pressing from the one(s) in the database
End of status report
 
Содержание индексной карты (.CUE)

 
cd1
REM DISCID 020A9601
REM COMMENT "ExactAudioCopy v0.99pb4"
PERFORMER "Anthony Braxton"
TITLE "Quartet (Birmingham) 1985"
FILE "Anthony Braxton Quartet - (Birmingham) 1985 - cd1.APE" WAVE
TRACK 01 AUDIO
TITLE "First Set"
PERFORMER "Anthony Braxton"
INDEX 00 00:00:00
INDEX 01 00:00:33
 
cd2
REM GENRE Jazz
REM DATE 1985
REM DISCID 180B0F02
REM COMMENT "ExactAudioCopy v0.99pb4"
PERFORMER "Anthony Braxton"
TITLE "Quartet (Birmingham) 1985"
FILE "Anthony Braxton Quartet - (Birmingham) 1985 - cd2.APE" WAVE
TRACK 01 AUDIO
TITLE "02-Second Set"
PERFORMER "Anthony Braxton"
INDEX 00 00:00:00
INDEX 01 00:00:33
TRACK 02 AUDIO
TITLE "03-Encore"
PERFORMER "Anthony Braxton"
INDEX 01 44:26:18
 
Об альбоме (сборнике)
This concert was played several days after the London one (CD LR 200/201). This music is very different, of course. Each double CD is accompanied by extensive notes by Graham Lock.
 
Состав
Anthony Braxton - reeds
Marilyn Crispell - piano
Gerry Hemingway - percussion
Mark Dresser - bass
Any questions -> support@pro-jazz.com. По всем вопросам пишите -> support@pro-jazz.com
09:46
208
Нет комментариев. Ваш будет первым!