Вы используете незарегистрированную версию компонента "Вкладки"!

Поиск

(Mainstream Jazz, Straightahead) Uri Caine - Toys - 1996, FLAC (image+.cue) lossless

(Mainstream Jazz, Straightahead) Uri Caine - Toys - 1996, FLAC (image+.cue) lossless
Треклист:
Uri Caine / Toys
Жанр: Mainstream Jazz, Straightahead
Страна-производитель диска: Germany
Год издания диска: 1996 (2006)
Издатель (лейбл): Winter & Winter
Номер по каталогу: 919 077-2
Аудио кодек: FLAC (*.flac)
Тип рипа: image+.cue
Битрейт аудио: lossless
Продолжительность: 69:35
Источник (релизер): oStereo
Наличие сканов в содержимом раздачи: нет
Треклист:
1)Time Will Tell (Uri Caine)
2)The Prisoner (Herbie Hancock)
3)Herbal Blue (Uri Caine)
4)Or Truth? (Uri Caine)
5)Yellow Stars in Heaven (Uri Caine)
6)Over & Out (Uri Caine)
7)Dolphin Dance (Herbie Hancock)
8)Toys (Herbie Hancock)
9)Cantaloupe Island (Herbie Hancock)
10)Woodpecker (Uri Caine)
11)I'm Meshugah For My Sugah {and My Sugah's Meshugah For Me} (Uri Caine)
Recorded at Power Station, NYC, February and March 1995.
 
Лог создания рипа
Exact Audio Copy V0.99 prebeta 4 from 23. January 2008
Отчёт EAC об извлечении, выполненном 27. февраля 2010, 23:39
Uri Caine / Toys
Дисковод: Optiarc BD ROM BC-5500A Adapter: 0 ID: 0
Режим чтения : Достоверность
Использование точного потока : Да
Отключение кэша аудио : Нет
Использование указателей C2 : Нет
Коррекция смещения при чтении : 48
Способность читать области Lead-in и Lead-out : Нет
Заполнение пропущенных сэмплов тишиной : Да
Удаление блоков с тишиной в начале и конце : Нет
При вычислениях CRC использовались нулевые сэмплы : Да
Интерфейс : Установленный внешний ASPI-интерфейс
Выходной формат : Пользовательский кодировщик
Выбранный битрейт : 768 kBit/s
Качество : Высокий
Добавление ID3-тэга : Нет
Утилита сжатия : D:\Program Files\Exact Audio Copy\FLAC\FLAC.EXE
Дополнительные параметры : -6 -V -T "ARTIST=%a" -T "TITLE=%t" -T "ALBUM=%g" -T "DATE=%y" -T "TRACKNUMBER=%n" -T "GENRE=%m" -T "COMMENT=%e" %s -o %d
TOC извлечённого CD
Трек | Старт | Длительность | Начальный сектор | Конечный сектор
---------------------------------------------------------------------
1 | 0:00.00 | 7:58.37 | 0 | 35886
2 | 7:58.37 | 10:41.63 | 35887 | 84024
3 | 18:40.25 | 5:51.05 | 84025 | 110354
4 | 24:31.30 | 7:26.40 | 110355 | 143844
5 | 31:57.70 | 9:10.25 | 143845 | 185119
6 | 41:08.20 | 7:57.45 | 185120 | 220939
7 | 49:05.65 | 2:06.25 | 220940 | 230414
8 | 51:12.15 | 7:27.62 | 230415 | 264001
9 | 58:40.02 | 4:43.33 | 264002 | 285259
10 | 63:23.35 | 4:30.55 | 285260 | 305564
11 | 67:54.15 | 1:41.24 | 305565 | 313163
Характеристики диапазона извлечения и сообщения об ошибках
Выбранный диапазон
Имя файла D:\Users\Sergio\Desktop\Uri Caine 1995 Toys (Winter & Winter 919 077-2) Lstb\Uri Caine - Toys.wav
Пиковый уровень 100.0 %
Качество диапазона 100.0 %
CRC копии 7191C5DB
Копирование... OK
Ошибок не произошло
AccurateRip: сводка
Трек 1 нет в базе данных
Трек 2 нет в базе данных
Трек 3 нет в базе данных
Трек 4 нет в базе данных
Трек 5 нет в базе данных
Трек 6 нет в базе данных
Трек 7 нет в базе данных
Трек 8 нет в базе данных
Трек 9 нет в базе данных
Трек 10 нет в базе данных
Трек 11 нет в базе данных
Ни одного трека нет в базе AccurateRip
Конец отчёта
 
Содержание индексной карты (.CUE)
REM GENRE Contemporary Jazz
REM DATE 1995
REM DISCID 95104F0B
REM COMMENT ExactAudioCopy v0.99pb4
PERFORMER "Uri Caine"
TITLE "Toys"
FILE "Uri Caine - Toys.flac" WAVE
TRACK 01 AUDIO
TITLE "Time Will Tell"
FLAGS DCP
INDEX 01 00:00:00
TRACK 02 AUDIO
TITLE "The Prisoner"
FLAGS DCP
INDEX 00 07:55:03
INDEX 01 07:58:37
TRACK 03 AUDIO
TITLE "Herbal Blue"
FLAGS DCP
INDEX 00 18:37:65
INDEX 01 18:40:25
TRACK 04 AUDIO
TITLE "Or Truth?"
FLAGS DCP
INDEX 00 24:27:47
INDEX 01 24:31:30
TRACK 05 AUDIO
TITLE "Yellow Stars In Heaven"
FLAGS DCP
INDEX 00 31:53:59
INDEX 01 31:57:70
TRACK 06 AUDIO
TITLE "OVER&OUT"
FLAGS DCP
INDEX 00 41:02:64
INDEX 01 41:08:20
TRACK 07 AUDIO
TITLE "Dolphin Dance"
FLAGS DCP
INDEX 00 49:01:60
INDEX 01 49:05:65
TRACK 08 AUDIO
TITLE "Toys"
FLAGS DCP
INDEX 01 51:12:15
TRACK 09 AUDIO
TITLE "Cantaloupe Island"
FLAGS DCP
INDEX 00 58:38:38
INDEX 01 58:40:02
TRACK 10 AUDIO
TITLE "Woodpecker"
FLAGS DCP
INDEX 00 63:20:66
INDEX 01 63:23:35
TRACK 11 AUDIO
TITLE "I'm meshugah for my sugah (and my sugah's meshugah for me)"
FLAGS DCP
INDEX 00 67:49:27
INDEX 01 67:54:15
Доп. информация: http://www.allaboutjazz.com/php/article.php?id=20393
 
Состав
Uri Caine - Piano
Don Byron - Clarinet
Dave Douglas - Trumpet
Joshua Roseman - Trombone
Dave Holland - Bass
Ralph Peterson - Drums
Don Alias - Percussion
По всем вопросам пишите личное сообщение пользователю M0p94ok.
09:47
139
Нет комментариев. Ваш будет первым!