Вы используете незарегистрированную версию компонента "Вкладки"!

Поиск

(Free Jazz, Free Improvisation) Cecil Taylor - William Parker - Masashi Harada - CT: The Dance Project - 2008, FLAC (tracks+.cue) lossless

(Free Jazz, Free Improvisation) Cecil Taylor - William Parker - Masashi Harada - CT: The Dance Project - 2008, FLAC (tracks+.cue) lossless
Треклист:
Cecil Taylor - William Parker - Masashi Harada / CT: The Dance Project
Жанр: Free Jazz, Free Improvisation
Страна-производитель диска: Германия
Год издания диска: 2008
Издатель (лейбл): FMP
Номер по каталогу: FMP CD 130
Страна: США, Япония
Аудио кодек: FLAC (*.flac)
Тип рипа: tracks+.cue
Битрейт аудио: lossless
Продолжительность: 39:17
Источник (релизер): другой трекер (doughins)
Наличие сканов в содержимом раздачи: да
Треклист:
A ASTRAL FLUID ON THE EARTH
1 Looking Into The Universe – 11:00
2 Emerging From The Cosmic Exterial – 4:19
B SOUL ACTIVITIES
3 Feeling – 12:12
4 Willing – 11:45
All music composed by Cecil Taylor
Recorded live during the Summer Music concert series on July 8th,1990 at the Akademie der Künste in Berlin.
 
Лог создания рипа
EAC extraction logfile from 19. December 2008, 18:07 for CD
Cecil Taylor / The Dance Project
Used drive : PBDS CDRWDVD DH-48C2S Adapter: 1 ID: 1
Read mode : Secure with NO C2, accurate stream, disable cache
Read offset correction : 6
Overread into Lead-In and Lead-Out : No
Used output format : C:\Program Files\FLAC\flac.exe (User Defined Encoder)
128 kBit/s
Additional command line options : -V -8 -T "artist=%a" -T "title=%t" -T "album=%g" -T "date=%y" -T "tracknumber=%n" -T "genre=%m" %s
Other options :
Fill up missing offset samples with silence : Yes
Delete leading and trailing silent blocks : No
Native Win32 interface for Win NT & 2000
Track 1
Filename D:\DOWNLOADS\_UPLOADS\Cecil Taylor - The Dance Project (1990) [FLAC]\01 - Looking Into The Universe.wav
Pre-gap length 0:00:02.00
Peak level 92.7 %
Track quality 100.0 %
Test CRC AA31514F
Copy CRC AA31514F
Copy OK
Track 2
Filename D:\DOWNLOADS\_UPLOADS\Cecil Taylor - The Dance Project (1990) [FLAC]\02 - Emerging from the Cosmic Exterial.wav
Peak level 90.9 %
Track quality 100.0 %
Test CRC 94169D0E
Copy CRC 94169D0E
Copy OK
Track 3
Filename D:\DOWNLOADS\_UPLOADS\Cecil Taylor - The Dance Project (1990) [FLAC]\03 - Feeling.wav
Peak level 93.8 %
Track quality 100.0 %
Test CRC 00F8E184
Copy CRC 00F8E184
Copy OK
Track 4
Filename D:\DOWNLOADS\_UPLOADS\Cecil Taylor - The Dance Project (1990) [FLAC]\04 - Willing.wav
Peak level 93.7 %
Track quality 100.0 %
Test CRC 259B9B4B
Copy CRC 259B9B4B
Copy OK
No errors occured
End of status report
 
Содержание индексной карты (.CUE)
REM GENRE Jazz
REM DATE 1990
REM DISCID 2D093504
REM COMMENT "ExactAudioCopy v0.95b3"
PERFORMER "Cecil Taylor"
TITLE "The Dance Project"
FILE "Cecil Taylor - The Dance Project (1990) [FLAC]\01 - Looking Into The Universe.wav" WAVE
TRACK 01 AUDIO
TITLE "Looking Into The Universe"
PERFORMER "Cecil Taylor"
FLAGS DCP
INDEX 01 00:00:00
FILE "Cecil Taylor - The Dance Project (1990) [FLAC]\02 - Emerging from the Cosmic Exterial.wav" WAVE
TRACK 02 AUDIO
TITLE "Emerging from the Cosmic Exterial"
PERFORMER "Cecil Taylor"
FLAGS DCP
INDEX 01 00:00:00
FILE "Cecil Taylor - The Dance Project (1990) [FLAC]\03 - Feeling.wav" WAVE
TRACK 03 AUDIO
TITLE "Feeling"
PERFORMER "Cecil Taylor"
FLAGS DCP
INDEX 01 00:00:00
FILE "Cecil Taylor - The Dance Project (1990) [FLAC]\04 - Willing.wav" WAVE
TRACK 04 AUDIO
TITLE "Willing"
PERFORMER "Cecil Taylor"
FLAGS DCP
INDEX 01 00:00:00
 
Лог проверки качества
AUDIOCHECKER v2.0 beta (build 457) - by Dester - opdester@freemail.hu
~~~~~~~~~~~~~~~~~~~~~~~~~~~~~~~~~~
-=== DO NOT EDIT THIS FILE! ===-
Path: ...\the dance project 1990
1 -=- 01 - Looking Into The Universe.flac -=- CDDA (100%)
2 -=- 02 - Emerging from the Cosmic Exterial.flac -=- CDDA (100%)
3 -=- 03 - Feeling.flac -=- CDDA (100%)
4 -=- 04 - Willing.flac -=- CDDA (100%)
Summary 100,00% CDDA
150423284
 
Состав

Cecil Taylor - piano;
William Parker - double bass;
Masashi Harada - percussion
Any questions -> support@pro-jazz.com. По всем вопросам пишите -> support@pro-jazz.com
09:45
131
Нет комментариев. Ваш будет первым!