Вы используете незарегистрированную версию компонента "Вкладки"!

Поиск

(Free Jazz, Free Improvisation) Rova Saxophone Quartet - The Juke Box Suite - 2007, APE (image+.cue), lossless

Треклист:
Rova Saxophone Quartet - The Juke Box Suite
Жанр: Free Jazz, Free Improvisation
Страна-производитель диска: Poland
Год издания диска: 2007
Издатель (лейбл): Not Two Records
Номер по каталогу: MW 786-2
Страна: Poland
Аудиокодек: APE (*.ape)
Тип рипа: image+.cue
Битрейт аудио: lossless
Продолжительность: 00:47:03
Источник (релизер): SurowyTato
Наличие сканов в содержимом раздачи: да

Bruce Ackley - soprano and tenor saxophones
Steve Adams - alto saxophone
Larry Ochs - tenor and sopranino saxophones
Jon Raskin - baritone and alto saxophones

01. Juke Box Afro-Balkan [04:33]
02. Juke Box Mambo [04:56]
03. Juke Box Niggum (Dedicated To David Englestein) [05:54]
04. Juke Box Detroit (Dedicated To The White Stripes) [09:55]
05. Juke Box Hang Up (Dedicated To Eva Hesse) [08:56]
06. Juke Box Choro (Dedicated To Alfredo Da Rocha Vianna Filho Better Known As Pi... [06:30]
07. Juke Box Varttinna (Dedicated To Varttinna) [06:16]

 
Лог создания рипа
Exact Audio Copy V0.99 prebeta 3 from 28. July 2007
EAC extraction logfile from 29. July 2009, 9:36
Rova Saxophone Quartet / The Juke Box Suite
Used drive : PLEXTOR DVDR PX-810SA Adapter: 1 ID: 0
Read mode : Secure
Utilize accurate stream : Yes
Defeat audio cache : Yes
Make use of C2 pointers : No
Read offset correction : 48
Overread into Lead-In and Lead-Out : No
Fill up missing offset samples with silence : Yes
Delete leading and trailing silent blocks : No
Null samples used in CRC calculations : Yes
Used interface : Installed external ASPI interface
Used output format : Internal WAV Routines
Sample format : 44.100 Hz; 16 Bit; Stereo
TOC of the extracted CD
Track | Start | Length | Start sector | End sector
---------------------------------------------------------
1 | 0:00.00 | 4:33.14 | 0 | 20488
2 | 4:33.14 | 4:56.26 | 20489 | 42714
3 | 9:29.40 | 5:54.28 | 42715 | 69292
4 | 15:23.68 | 9:55.51 | 69293 | 113968
5 | 25:19.44 | 8:56.30 | 113969 | 154198
6 | 34:15.74 | 6:30.53 | 154199 | 183501
7 | 40:46.52 | 6:16.58 | 183502 | 211759
Range status and errors
Selected range
Filename E:\INCOMING\EAC\Rova Saxophone Quartet - The Juke Box Suite.wav
Peak level 100.0 %
Range quality 100.0 %
Test CRC 85057E14
Copy CRC 85057E14
Copy OK
No errors occurred
End of status report
 
Содержание индексной карты (.CUE)
REM GENRE "Free Jazz, Experimental"
REM DATE 2007
REM DISCID 560B0707
REM COMMENT "ExactAudioCopy v0.99pb3"
PERFORMER "Rova Saxophone Quartet"
TITLE "The Juke Box Suite"
FILE "Rova Saxophone Quartet - The Juke Box Suite.wav" WAVE
TRACK 01 AUDIO
TITLE "Juke Box Afro-Balkan"
PERFORMER "Rova Saxophone Quartet"
FLAGS DCP
INDEX 01 00:00:00
TRACK 02 AUDIO
TITLE "Juke Box Mambo"
PERFORMER "Rova Saxophone Quartet"
FLAGS DCP
INDEX 01 04:33:14
TRACK 03 AUDIO
TITLE "Juke Box Niggum (Dedicated To David Englestein)"
PERFORMER "Rova Saxophone Quartet"
FLAGS DCP
INDEX 00 09:28:40
INDEX 01 09:29:40
TRACK 04 AUDIO
TITLE "Juke Box Detroit (Dedicated To The White Stripes)"
PERFORMER "Rova Saxophone Quartet"
FLAGS DCP
INDEX 00 15:21:68
INDEX 01 15:23:68
TRACK 05 AUDIO
TITLE "Juke Box Hang Up (Dedicated To Eva Hesse)"
PERFORMER "Rova Saxophone Quartet"
FLAGS DCP
INDEX 00 25:16:44
INDEX 01 25:19:44
TRACK 06 AUDIO
TITLE "Juke Box Choro (Dedicated To Alfredo Da Rocha Vianna Filho Better Known As Pi..."
PERFORMER "Rova Saxophone Quartet"
FLAGS DCP
INDEX 00 34:11:74
INDEX 01 34:15:74
TRACK 07 AUDIO
TITLE "Juke Box Varttinna (Dedicated To Varttinna)"
PERFORMER "Rova Saxophone Quartet"
FLAGS DCP
INDEX 00 40:44:52
INDEX 01 40:46:52
По всем вопросам пишите личное сообщение пользователю M0p94ok.
16:11
178
Нет комментариев. Ваш будет первым!