Поиск

(Free Funk, Avant-Garde, Fusion) Material - Memory Serves - 1981, FLAC (tracks+.cue), lossless

Треклист:
Material / Memory Serves
Жанр: Free Funk, Avant-Garde, Fusion
Страна-производитель диска: US
Год издания диска: 1992
Издатель (лейбл): Restless Records
Номер по каталогу: 7 72653-2
Страна: US
Аудиокодек: FLAC (*.flac)
Тип рипа: tracks+.cue
Битрейт аудио: lossless
Продолжительность: 42:56
Источник (релизер): свой фирменный диск
Наличие сканов в содержимом раздачи: нет
Треклист:
1 Memory Serves 5:08
2 Disappearing 7:11
3 Upriver 5:25
4 Metal Test 4:30
5 Conform to the Rhythm 4:30
6 Unauthorized 3:50
7 Square Dance 4:29
8 Silent Land 3:48
9 For a Few Dollars More 4:22 (bonus track)
 
Лог создания рипа
Exact Audio Copy V1.0 beta 2 from 29. April 2011
EAC extraction logfile from 22. August 2011, 20:35
Material / Memory Serves
Used drive : PIONEER DVD-RW DVR-115D Adapter: 0 ID: 0
Read mode : Secure
Utilize accurate stream : Yes
Defeat audio cache : Yes
Make use of C2 pointers : No
Read offset correction : 48
Overread into Lead-In and Lead-Out : No
Fill up missing offset samples with silence : Yes
Delete leading and trailing silent blocks : No
Null samples used in CRC calculations : Yes
Used interface : Installed external ASPI interface
Gap handling : Appended to previous track
Used output format : User Defined Encoder
Selected bitrate : 768 kBit/s
Quality : High
Add ID3 tag : Yes
Command line compressor : C:\Program Files\Exact Audio Copy\FLAC\FLAC.EXE
Additional command line options : -6 -V -T "ARTIST=%artist%" -T "TITLE=%title%" -T "ALBUM=%albumtitle%" -T "DATE=%year%" -T "TRACKNUMBER=%tracknr%" -T "GENRE=%genre%" -T "COMMENT=%comment%" -T "BAND=%albuminterpret%" -T "COMPOSER=%composer%" %haslyrics%--ta
TOC of the extracted CD
Track | Start | Length | Start sector | End sector
---------------------------------------------------------
1 | 0:00.25 | 5:08.65 | 25 | 23189
2 | 5:09.15 | 7:12.70 | 23190 | 55659
3 | 12:22.10 | 5:26.67 | 55660 | 80176
4 | 17:49.02 | 4:30.55 | 80177 | 100481
5 | 22:19.57 | 4:30.73 | 100482 | 120804
6 | 26:50.55 | 3:51.30 | 120805 | 138159
7 | 30:42.10 | 4:32.10 | 138160 | 158569
8 | 35:14.20 | 3:50.67 | 158570 | 175886
9 | 39:05.12 | 3:51.28 | 175887 | 193239
Track 1
Filename D:\zzz\01. Memory Serves.wav
Pre-gap length 0:00:02.25
Peak level 93.7 %
Extraction speed 4.6 X
Track quality 100.0 %
Test CRC 70BC6A49
Copy CRC 70BC6A49
Accurately ripped (confidence 2) [0C8542A3] (AR v1)
Copy OK
Track 2
Filename D:\zzz\02. Disappearing.wav
Peak level 93.7 %
Extraction speed 5.1 X
Track quality 99.9 %
Test CRC 193E6C41
Copy CRC 193E6C41
Accurately ripped (confidence 2) [632FF7D0] (AR v1)
Copy OK
Track 3
Filename D:\zzz\03. Upriver.wav
Peak level 93.7 %
Extraction speed 5.9 X
Track quality 100.0 %
Test CRC 1E8FA9CF
Copy CRC 1E8FA9CF
Accurately ripped (confidence 2) [74D750E2] (AR v1)
Copy OK
Track 4
Filename D:\zzz\04. Metal Test.wav
Peak level 93.7 %
Extraction speed 6.2 X
Track quality 100.0 %
Test CRC 64AEF929
Copy CRC 64AEF929
Accurately ripped (confidence 2) [37D7C203] (AR v1)
Copy OK
Track 5
Filename D:\zzz\05. Conform to the Rhythm.wav
Peak level 75.8 %
Extraction speed 6.6 X
Track quality 100.0 %
Test CRC D1D32059
Copy CRC D1D32059
Accurately ripped (confidence 2) [CABC8A0B] (AR v1)
Copy OK
Track 6
Filename D:\zzz\06. Unauthorized.wav
Peak level 93.7 %
Extraction speed 5.9 X
Track quality 99.9 %
Test CRC B0DBD7F5
Copy CRC B0DBD7F5
Accurately ripped (confidence 2) [EAACC185] (AR v1)
Copy OK
Track 7
Filename D:\zzz\07. Square Dance.wav
Peak level 93.7 %
Extraction speed 7.1 X
Track quality 100.0 %
Test CRC 0FCA663E
Copy CRC 0FCA663E
Accurately ripped (confidence 2) [94A378BD] (AR v1)
Copy OK
Track 8
Filename D:\zzz\08. Silent Lands.wav
Peak level 93.7 %
Extraction speed 7.2 X
Track quality 100.0 %
Test CRC C05E587F
Copy CRC C05E587F
Accurately ripped (confidence 2) [EF69DF74] (AR v1)
Copy OK
Track 9
Filename D:\zzz\09. For a Few Dollars More.wav
Peak level 87.2 %
Extraction speed 7.4 X
Track quality 100.0 %
Test CRC DC649BC4
Copy CRC DC649BC4
Accurately ripped (confidence 2) [A0788C7D] (AR v1)
Copy OK
All tracks accurately ripped
No errors occurred
End of status report
 
Содержание индексной карты (.CUE)
REM GENRE Jazz
REM DISCID 5D0A1009
REM COMMENT "ExactAudioCopy v1.0b2"
PERFORMER "Material"
TITLE "Memory Serves"
FILE "01. Memory Serves.wav" WAVE
TRACK 01 AUDIO
TITLE "Memory Serves"
PERFORMER "Material"
PREGAP 00:00:25
INDEX 01 00:00:00
FILE "02. Disappearing.wav" WAVE
TRACK 02 AUDIO
TITLE "Disappearing"
PERFORMER "Material"
INDEX 01 00:00:00
FILE "03. Upriver.wav" WAVE
TRACK 03 AUDIO
TITLE "Upriver"
PERFORMER "Material"
INDEX 01 00:00:00
FILE "04. Metal Test.wav" WAVE
TRACK 04 AUDIO
TITLE "Metal Test"
PERFORMER "Material"
INDEX 01 00:00:00
FILE "05. Conform to the Rhythm.wav" WAVE
TRACK 05 AUDIO
TITLE "Conform to the Rhythm"
PERFORMER "Material"
INDEX 01 00:00:00
FILE "06. Unauthorized.wav" WAVE
TRACK 06 AUDIO
TITLE "Unauthorized"
PERFORMER "Material"
INDEX 01 00:00:00
FILE "07. Square Dance.wav" WAVE
TRACK 07 AUDIO
TITLE "Square Dance"
PERFORMER "Material"
INDEX 01 00:00:00
FILE "08. Silent Lands.wav" WAVE
TRACK 08 AUDIO
TITLE "Silent Lands"
PERFORMER "Material"
INDEX 01 00:00:00
FILE "09. For a Few Dollars More.wav" WAVE
TRACK 09 AUDIO
TITLE "For a Few Dollars More"
PERFORMER "Material"
INDEX 01 00:00:00
 
Лог проверки качества
d:\>d:\aucdtect -d/-m0 d:\zzz\*.wav
auCDtect: CD records authenticity detector, version 0.8.2
Copyright (c) 2004 Oleg Berngardt. All rights reserved.
Copyright (c) 2004 Alexander Djourik. All rights reserved.
------------------------------------------------------------
Processing file: [01. Memory Serves.wav]
------------------------------------------------------------
This track looks like CDDA with probability 100%
------------------------------------------------------------
Processing file: [02. Disappearing.wav]
------------------------------------------------------------
This track looks like CDDA with probability 100%
------------------------------------------------------------
Processing file: [03. Upriver.wav]
------------------------------------------------------------
This track looks like CDDA with probability 100%
------------------------------------------------------------
Processing file: [04. Metal Test.wav]
------------------------------------------------------------
This track looks like CDDA with probability 100%
------------------------------------------------------------
Processing file: [05. Conform to the Rhythm.wav]
------------------------------------------------------------
This track looks like CDDA with probability 100%
------------------------------------------------------------
Processing file: [06. Unauthorized.wav]
------------------------------------------------------------
This track looks like CDDA with probability 100%
------------------------------------------------------------
Processing file: [07. Square Dance.wav]
------------------------------------------------------------
This track looks like CDDA with probability 100%
------------------------------------------------------------
Processing file: [08. Silent Lands.wav]
------------------------------------------------------------
This track looks like CDDA with probability 100%
------------------------------------------------------------
Processing file: [09. For a Few Dollars More.wav]
------------------------------------------------------------
This track looks like CDDA with probability 100%
------------------------------------------------------------
Final Conclusion:
------------------------------------------------------------
These tracks looks like CDDA with probability 100%
Доп. информация:
 
Album & CD Info
(P)1982, 1983 Metrotone Records Ltd. (C)1992 Metrotone Records Ltd.
AAD
Recorded at O.A.O. Studio.
Mixed at Sorcerer Sound.
Mastered at Masterdisk, N.Y.C.
9. recorded at Radio City and Green Street Studios, mixed at RPM Studio.
All songs published by Chu-Teh Music (BMI) except 9. by EMI-Unart Catalog Inc. (BMI).
CD Matrix Lettering: 72653-2 (V) MASTERED BY NIMBUS
 
Состав
Bill Laswell, Sonny Sharrock, Fred Frith, Henry Threadgill, George Lewis, Henry Kaiser (9), Olu Dara, Billy Bang, Robert Musso, Grand Mixer D.S.T., Daniel Ponce, Anton Fier, Charles K. Noyes, Michael Beinhorn
По всем вопросам пишите личное сообщение пользователю M0p94ok.
16:12
168
Нет комментариев. Ваш будет первым!