Поиск

(Free Jazz) Test (Sabir Mateen, Daniel Carter, Tom Bruno, Matthew Heyner) - Test [Ecstatic Peace] - 1999, FLAC (image+.cue), lossless

(Free Jazz) Test (Sabir Mateen, Daniel Carter, Tom Bruno, Matthew Heyner) - Test [Ecstatic Peace] - 1999, FLAC (image+.cue), lossless
Треклист:
Test / Test [Ecstatic Peace]
Жанр: Free Jazz
Страна-производитель диска: US
Год издания диска: 1999
Издатель (лейбл): Ecstatic Peace
Номер по каталогу: E84
Аудиокодек: FLAC (*.flac)
Тип рипа: image+.cue
Битрейт аудио: lossless
Продолжительность: 65:47
Источник (релизер): cd
Наличие сканов в содержимом раздачи: нет
Треклист:
1. First Peace That Ever Was, Is to Be 27:05
2. Dis-Astor Place 14:39
3. A Journey into the Love, Light and Power of Creator, Pt. 1 24:02
 
Лог создания рипа
Exact Audio Copy V1.0 beta 2 from 29. April 2011
EAC extraction logfile from 20. August 2011, 18:05
Test / Test [Ecstatic Peace]
Used drive : Optiarc DVD RW AD-7170A Adapter: 0 ID: 0
Read mode : Secure
Utilize accurate stream : Yes
Defeat audio cache : Yes
Make use of C2 pointers : No
Read offset correction : 48
Overread into Lead-In and Lead-Out : No
Fill up missing offset samples with silence : Yes
Delete leading and trailing silent blocks : No
Null samples used in CRC calculations : Yes
Used interface : Native Win32 interface for Win NT & 2000
Used output format : User Defined Encoder
Selected bitrate : 320 kBit/s
Quality : High
Add ID3 tag : No
Command line compressor : C:\Program Files\Exact Audio Copy\Flac\flac.exe
Additional command line options : -V -8 -T "Date=%year%" -T "Genre=%genre%" %source%
TOC of the extracted CD
Track | Start | Length | Start sector | End sector
---------------------------------------------------------
1 | 0:00.00 | 27:05.05 | 0 | 121879
2 | 27:05.05 | 14:39.45 | 121880 | 187849
3 | 41:44.50 | 24:02.40 | 187850 | 296039
Range status and errors
Selected range
Filename C:\EAC\Downloads\Test - Test [Ecstatic Peace].wav
Peak level 98.8 %
Extraction speed 2.1 X
Range quality 99.9 %
Test CRC 724EA40E
Copy CRC 724EA40E
Copy OK
No errors occurred
AccurateRip summary
Track 1 accurately ripped (confidence 3) [0B8030C5] (AR v1)
Track 2 accurately ripped (confidence 3) [A70030FA] (AR v1)
Track 3 accurately ripped (confidence 2) [766ED1D5] (AR v1)
All tracks accurately ripped
End of status report
==== Log checksum 0CFF43B7DEAD724F6A4AC8166B47B27CACAC24243E2C274FB9E72F3378853830 ====
 
Содержание индексной карты (.CUE)
REM GENRE Jazz
REM DATE 1999
REM DISCID 1F0F6B03
REM COMMENT "ExactAudioCopy v1.0b2"
CATALOG 0000000000000
PERFORMER "Test"
TITLE "Test [Ecstatic Peace]"
FILE "Test - Test [Ecstatic Peace].flac" WAVE
TRACK 01 AUDIO
TITLE "First Peace That Ever Was, Is to Be"
PERFORMER "Test"
ISRC 000000000000
INDEX 01 00:00:00
TRACK 02 AUDIO
TITLE "Dis-Astor Place"
PERFORMER "Test"
ISRC 000000000000
INDEX 00 26:54:30
INDEX 01 27:05:05
TRACK 03 AUDIO
TITLE "A Journey into the Love, Light and Power of Creator, Pt. 1"
PERFORMER "Test"
ISRC 000000000000
INDEX 00 41:29:70
INDEX 01 41:44:50
 
Состав
Tom Bruno Drums, Vocals
Daniel Carter Flute, Trumpet, Sax (Alto), Sax (Tenor), Vocals
Matthew Heyner Bass
Sabir Mateen Clarinet, Flute, Sax (Alto), Sax (Tenor), Vocals
Thurston Moore Producer
По всем вопросам пишите личное сообщение пользователю M0p94ok.
16:11
249
Нет комментариев. Ваш будет первым!