Вы используете незарегистрированную версию компонента "Вкладки"!

Поиск

(Free Jazz, Free Improvisation, psi) [CD] Evan Parker / Paul Lytton - Collective Calls (Urban) (Two Microphones) - 2002, FLAC (tracks+.cue), lossless

(Free Jazz, Free Improvisation, psi) [CD] Evan Parker / Paul Lytton - Collective Calls (Urban) (Two Microphones) - 2002, FLAC (tracks+.cue), lossless
Треклист:
Evan Parker - Paul Lytton / Collective Calls (Urban) (Two Microphones)
Жанр: Free Jazz, Free Improvisation
Носитель: CD
Страна-производитель диска: UK
Год издания: 2002
Издатель (лейбл): psi
Номер по каталогу: 02.05
Аудиокодек: FLAC (*.flac)
Тип рипа: tracks+.cue
Битрейт аудио: lossless
Продолжительность: 49:20
Источник (релизер): whatcd (bokee)
Наличие сканов в содержимом раздачи: нет
Треклист:
1 Peradam 5:16
2 Cat's Flux 5:49
3 Shaker 13:02
4 Left Of The Neo-Left 1:18
5 Lytton Perdu 13:26
6 Voice Fragment 0:25
7 Some Mother Blues 8:06
8 What's Left Of The Neo-Left 2:00
 
Лог создания рипа
Exact Audio Copy V1.0 beta 3 from 29. August 2011
EAC extraction logfile from 23. July 2014, 9:37
Evan Parker & Paul Lytton / Collective Calls (Urban) (Two Microphones)
Used drive : TSSTcorpDVD+-RW SN-208DN Adapter: 0 ID: 0
Read mode : Secure
Utilize accurate stream : Yes
Defeat audio cache : Yes
Make use of C2 pointers : No
Read offset correction : 6
Overread into Lead-In and Lead-Out : No
Fill up missing offset samples with silence : Yes
Delete leading and trailing silent blocks : No
Null samples used in CRC calculations : Yes
Used interface : Native Win32 interface for Win NT & 2000
Gap handling : Appended to previous track
Used output format : User Defined Encoder
Selected bitrate : 896 kBit/s
Quality : High
Add ID3 tag : No
Command line compressor : C:\Program Files (x86)\FLAC\flac.exe
Additional command line options : -8 -V -T "ARTIST=%artist%" -T "TITLE=%title%" -T "ALBUM=%albumtitle%" -T "DATE=%year%" -T "TRACKNUMBER=%tracknr1%" -T "ALBUMARTIST=%albumartist%" -T "DISCNUMBER=%cdnumber%" -T "LABEL=%comment%" %source% -o %dest%
TOC of the extracted CD
Track | Start | Length | Start sector | End sector
---------------------------------------------------------
1 | 0:00.00 | 5:15.52 | 0 | 23676
2 | 5:15.52 | 5:48.38 | 23677 | 49814
3 | 11:04.15 | 13:01.49 | 49815 | 108438
4 | 24:05.64 | 1:18.15 | 108439 | 114303
5 | 25:24.04 | 13:25.46 | 114304 | 174724
6 | 38:49.50 | 0:25.00 | 174725 | 176599
7 | 39:14.50 | 8:06.36 | 176600 | 213085
8 | 47:21.11 | 1:59.64 | 213086 | 222074
Track 1
Filename D:\EAC Rips\Evan Parker & Paul Lytton - Collective Calls (Urban) (Two Microphones) (2002) - FLAC\01 Peradam.wav
Pre-gap length 0:00:02.00
Peak level 87.9 %
Extraction speed 2.4 X
Track quality 99.9 %
Test CRC ADD01E59
Copy CRC ADD01E59
Accurately ripped (confidence 1) [3F84F65D] (AR v1)
Copy OK
Track 2
Filename D:\EAC Rips\Evan Parker & Paul Lytton - Collective Calls (Urban) (Two Microphones) (2002) - FLAC\02 Cat's Flux 2.wav
Peak level 49.3 %
Extraction speed 3.2 X
Track quality 100.0 %
Test CRC 6E02F2E0
Copy CRC 6E02F2E0
Accurately ripped (confidence 1) [846F2FA4] (AR v1)
Copy OK
Track 3
Filename D:\EAC Rips\Evan Parker & Paul Lytton - Collective Calls (Urban) (Two Microphones) (2002) - FLAC\03 Shaker.wav
Peak level 94.1 %
Extraction speed 4.0 X
Track quality 100.0 %
Test CRC 3B168FB5
Copy CRC 3B168FB5
Accurately ripped (confidence 1) [D4F6CAC3] (AR v1)
Copy OK
Track 4
Filename D:\EAC Rips\Evan Parker & Paul Lytton - Collective Calls (Urban) (Two Microphones) (2002) - FLAC\04 Left of the Neo-Left.wav
Peak level 18.2 %
Extraction speed 3.1 X
Track quality 100.0 %
Test CRC FD43F5AC
Copy CRC FD43F5AC
Accurately ripped (confidence 1) [48999179] (AR v1)
Copy OK
Track 5
Filename D:\EAC Rips\Evan Parker & Paul Lytton - Collective Calls (Urban) (Two Microphones) (2002) - FLAC\05 Lytton perdu.wav
Pre-gap length 0:00:04.00
Peak level 79.7 %
Extraction speed 4.7 X
Track quality 100.0 %
Test CRC AC9E4B4D
Copy CRC AC9E4B4D
Accurately ripped (confidence 1) [A8FD6B59] (AR v1)
Copy OK
Track 6
Filename D:\EAC Rips\Evan Parker & Paul Lytton - Collective Calls (Urban) (Two Microphones) (2002) - FLAC\06 Voice Fragment.wav
Peak level 2.4 %
Extraction speed 2.0 X
Track quality 100.0 %
Test CRC 6FD65BD8
Copy CRC 6FD65BD8
Accurately ripped (confidence 1) [AB2BDC12] (AR v1)
Copy OK
Track 7
Filename D:\EAC Rips\Evan Parker & Paul Lytton - Collective Calls (Urban) (Two Microphones) (2002) - FLAC\07 Some Mother Blues.wav
Peak level 50.9 %
Extraction speed 5.1 X
Track quality 100.0 %
Test CRC B3229153
Copy CRC B3229153
Accurately ripped (confidence 1) [893361E1] (AR v1)
Copy OK
Track 8
Filename D:\EAC Rips\Evan Parker & Paul Lytton - Collective Calls (Urban) (Two Microphones) (2002) - FLAC\08 What's Left of the Neo-Left.wav
Peak level 24.0 %
Extraction speed 3.0 X
Track quality 99.9 %
Test CRC E377513C
Copy CRC E377513C
Accurately ripped (confidence 1) [05AB888B] (AR v1)
Copy OK
All tracks accurately ripped
No errors occurred
End of status report
==== Log checksum DB90716EF19CC733C6F2164B3770724B71F2B1113C33BCB97A06DB80F3CA8EB9 ====
 
Содержание индексной карты (.CUE)
REM DATE 2002
REM DISCID 670B9108
REM COMMENT "ExactAudioCopy v1.0b3"
FILE "01 Peradam.wav" WAVE
TRACK 01 AUDIO
INDEX 01 00:00:00
FILE "02 Cat's Flux 2.wav" WAVE
TRACK 02 AUDIO
INDEX 01 00:00:00
FILE "03 Shaker.wav" WAVE
TRACK 03 AUDIO
INDEX 01 00:00:00
FILE "04 Left of the Neo-Left.wav" WAVE
TRACK 04 AUDIO
INDEX 01 00:00:00
TRACK 05 AUDIO
INDEX 00 01:14:15
FILE "05 Lytton perdu.wav" WAVE
INDEX 01 00:00:00
FILE "06 Voice Fragment.wav" WAVE
TRACK 06 AUDIO
INDEX 01 00:00:00
FILE "07 Some Mother Blues.wav" WAVE
TRACK 07 AUDIO
INDEX 01 00:00:00
FILE "08 What's Left of the Neo-Left.wav" WAVE
TRACK 08 AUDIO
INDEX 01 00:00:00
Доп. информация: Recorded at the Standard Essence Co, London 15 & 16 April 1972.
 
Состав
Percussion, Drums – Paul Lytton
Saxophone, Liner Notes – Evan Parker
По всем вопросам пишите личное сообщение пользователю M0p94ok.
06:34
134
Нет комментариев. Ваш будет первым!