Вы используете незарегистрированную версию компонента "Вкладки"!

Поиск

(Free Jazz, For Tune) [CD] Piotr Damasiewicz Project (Gerard Lebik, Gabriel Ferrandini, Jakub Mielcarek) - Imprographic 1 (2CDs) - 2013, FLAC (tracks+.cue), lossless

(Free Jazz, For Tune) [CD] Piotr Damasiewicz Project (Gerard Lebik, Gabriel Ferrandini, Jakub Mielcarek) - Imprographic 1 (2CDs) - 2013, FLAC (tracks+.cue), lossless
Треклист:
Piotr Damasiewicz Project / Imprographic 1 (2CDs)
Жанр: Free Jazz
Носитель: CD
Страна-производитель диска: Poland
Год издания: 2013
Издатель (лейбл): For Tune
Номер по каталогу: 0006 006
Аудиокодек: FLAC (*.flac)
Тип рипа: tracks+.cue
Битрейт аудио: lossless
Продолжительность: 1:08:38 + 1:07:48
Источник (релизер): я
Наличие сканов в содержимом раздачи: да
Треклист:

Disc 1
1. Falanster 1 (20:12)
2. Falanster 2 (7:45)
3. Alchemia 1 (27:54)
4. Alchemia 2 (12:47)
Disc 2
1. Cofeina 1 (17:06)
2. Cofeina 2 (10:22)
3. Cofeina 3 (28:10)
4. Cofeina 4 (12:10)
All tunes are collective improvisations.
Recorded live September, 2012 in Poland: 12th at Alchemia Club (Kraków), 14th at Cofeina Club (Sucha Beskidzka) & 16th at Falanster Club (Wroclaw).
Piotr Damasiewicz – Trumpet
Gerard Lebik – Tenor Saxophone
Gabriel Ferrandini – Drums
Jakub Mielcarek – Double Bass
 
Лог создания рипа
 
Disc 1
Exact Audio Copy V1.0 beta 3 from 29. August 2011
EAC extraction logfile from 1. October 2014, 12:51
Piotr Damasiewicz Project / Imprographic 1 (Disc 1)
Used drive : SlimtypeeNAU508 5 Adapter: 1 ID: 0
Read mode : Secure
Utilize accurate stream : Yes
Defeat audio cache : Yes
Make use of C2 pointers : No
Read offset correction : 6
Overread into Lead-In and Lead-Out : No
Fill up missing offset samples with silence : Yes
Delete leading and trailing silent blocks : No
Null samples used in CRC calculations : Yes
Used interface : Native Win32 interface for Win NT & 2000
Gap handling : Appended to previous track
Used output format : User Defined Encoder
Selected bitrate : 768 kBit/s
Quality : High
Add ID3 tag : No
Command line compressor : C:\Program Files (x86)\Exact Audio Copy\Flac\flac.exe
Additional command line options : -8 -V -T "ARTIST=%artist%" -T "TITLE=%title%" -T "ALBUM=%albumtitle%" -T "DATE=%year%" -T "TRACKNUMBER=%tracknr%" -T "TOTALTRACKS=%numtracks%" -T "GENRE=%genre%" -T "ALBUMARTIST=%albumartist%" -T "ALBUM ARTIST=%albumartist%" -T "COMMENT=EAC Secure Mode, Test & Copy, AccurateRip, FLAC -8" %source%
TOC of the extracted CD
Track | Start | Length | Start sector | End sector
---------------------------------------------------------
1 | 0:00.00 | 20:12.00 | 0 | 90899
2 | 20:12.00 | 7:45.00 | 90900 | 125774
3 | 27:57.00 | 27:54.00 | 125775 | 251324
4 | 55:51.00 | 12:47.00 | 251325 | 308849
Track 1
Filename C:\EAC rips\01 - Falanster 1.wav
Pre-gap length 0:00:02.00
Peak level 100.0 %
Extraction speed 2.7 X
Track quality 100.0 %
Test CRC F30CED99
Copy CRC F30CED99
Track not present in AccurateRip database
Copy OK
Track 2
Filename C:\EAC rips\02 - Falanster 2.wav
Peak level 100.0 %
Extraction speed 3.3 X
Track quality 100.0 %
Test CRC 145A7055
Copy CRC 145A7055
Track not present in AccurateRip database
Copy OK
Track 3
Filename C:\EAC rips\03 - Alchemia 1.wav
Peak level 100.0 %
Extraction speed 4.1 X
Track quality 100.0 %
Test CRC E7698CED
Copy CRC E7698CED
Track not present in AccurateRip database
Copy OK
Track 4
Filename C:\EAC rips\04 - Alchemia 2.wav
Peak level 100.0 %
Extraction speed 4.6 X
Track quality 100.0 %
Test CRC 81090726
Copy CRC 81090726
Track not present in AccurateRip database
Copy OK
None of the tracks are present in the AccurateRip database
No errors occurred
End of status report
---- CUETools DB Plugin V2.1.4
[CTDB TOCID: JPG3OevG2eW4vW2rGeY8OAujUFo-] found
Submit result: JPG3OevG2eW4vW2rGeY8OAujUFo- has been confirmed
Track | CTDB Status
1 | (4/4) Accurately ripped
2 | (4/4) Accurately ripped
3 | (4/4) Accurately ripped
4 | (4/4) Accurately ripped
==== Log checksum 1D616CB65C4AFD8798D8EC5A521BBA1BDEF663E47801BDEF7CF887EFC905809E ====
 
Disc 2
Exact Audio Copy V1.0 beta 3 from 29. August 2011
EAC extraction logfile from 1. October 2014, 13:32
Piotr Damasiewicz Project / Imprographic 1 (Disc 2)
Used drive : SlimtypeeNAU508 5 Adapter: 1 ID: 0
Read mode : Secure
Utilize accurate stream : Yes
Defeat audio cache : Yes
Make use of C2 pointers : No
Read offset correction : 6
Overread into Lead-In and Lead-Out : No
Fill up missing offset samples with silence : Yes
Delete leading and trailing silent blocks : No
Null samples used in CRC calculations : Yes
Used interface : Native Win32 interface for Win NT & 2000
Gap handling : Appended to previous track
Used output format : User Defined Encoder
Selected bitrate : 768 kBit/s
Quality : High
Add ID3 tag : No
Command line compressor : C:\Program Files (x86)\Exact Audio Copy\Flac\flac.exe
Additional command line options : -8 -V -T "ARTIST=%artist%" -T "TITLE=%title%" -T "ALBUM=%albumtitle%" -T "DATE=%year%" -T "TRACKNUMBER=%tracknr%" -T "TOTALTRACKS=%numtracks%" -T "GENRE=%genre%" -T "ALBUMARTIST=%albumartist%" -T "ALBUM ARTIST=%albumartist%" -T "COMMENT=EAC Secure Mode, Test & Copy, AccurateRip, FLAC -8" %source%
TOC of the extracted CD
Track | Start | Length | Start sector | End sector
---------------------------------------------------------
1 | 0:00.00 | 17:06.00 | 0 | 76949
2 | 17:06.00 | 10:22.00 | 76950 | 123599
3 | 27:28.00 | 28:10.00 | 123600 | 250349
4 | 55:38.00 | 12:10.00 | 250350 | 305099
Track 1
Filename C:\EAC rips\01 - Cofeina 1.wav
Pre-gap length 0:00:02.00
Peak level 100.0 %
Extraction speed 2.6 X
Track quality 100.0 %
Test CRC EFB72CDF
Copy CRC EFB72CDF
Track not present in AccurateRip database
Copy OK
Track 2
Filename C:\EAC rips\02 - Cofeina 2.wav
Peak level 100.0 %
Extraction speed 3.2 X
Track quality 100.0 %
Test CRC 75271F1A
Copy CRC 75271F1A
Track not present in AccurateRip database
Copy OK
Track 3
Filename C:\EAC rips\03 - Cofeina 3.wav
Peak level 100.0 %
Extraction speed 4.1 X
Track quality 100.0 %
Test CRC 511A1617
Copy CRC 511A1617
Track not present in AccurateRip database
Copy OK
Track 4
Filename C:\EAC rips\04 - Cofeina 4.wav
Peak level 100.0 %
Extraction speed 4.6 X
Track quality 100.0 %
Test CRC CCFB977F
Copy CRC CCFB977F
Track not present in AccurateRip database
Copy OK
None of the tracks are present in the AccurateRip database
No errors occurred
End of status report
---- CUETools DB Plugin V2.1.4
[CTDB TOCID: A6xN.ErLhk9ZptJxcDtPB2f8Okk-] found
Submit result: A6xN.ErLhk9ZptJxcDtPB2f8Okk- has been confirmed
Track | CTDB Status
1 | (4/4) Accurately ripped
2 | (4/4) Accurately ripped
3 | (4/4) Accurately ripped
4 | (4/4) Accurately ripped
==== Log checksum 57FA26469DA6BC9E9D52F90359039BFBC175D6CBF9894B674F7FA4F2F9F7A61A ====
 
Содержание индексной карты (.CUE)
 
Disc 1
REM GENRE Jazz
REM DATE 2013
REM DISCID 2F101604
REM COMMENT "ExactAudioCopy v1.0b3"
PERFORMER "Piotr Damasiewicz Project"
TITLE "Imprographic 1 (Disc 1)"
FILE "01 - Falanster 1.wav" WAVE
TRACK 01 AUDIO
TITLE "Falanster 1"
PERFORMER "Piotr Damasiewicz Project"
ISRC PLH161300030
INDEX 01 00:00:00
FILE "02 - Falanster 2.wav" WAVE
TRACK 02 AUDIO
TITLE "Falanster 2"
PERFORMER "Piotr Damasiewicz Project"
ISRC PLH161300031
INDEX 01 00:00:00
FILE "03 - Alchemia 1.wav" WAVE
TRACK 03 AUDIO
TITLE "Alchemia 1"
PERFORMER "Piotr Damasiewicz Project"
ISRC PLH161300032
INDEX 01 00:00:00
FILE "04 - Alchemia 2.wav" WAVE
TRACK 04 AUDIO
TITLE "Alchemia 2"
PERFORMER "Piotr Damasiewicz Project"
ISRC PLH161300033
INDEX 01 00:00:00
 
Disc 2
REM GENRE Jazz
REM DATE 2013
REM DISCID 230FE404
REM COMMENT "ExactAudioCopy v1.0b3"
PERFORMER "Piotr Damasiewicz Project"
TITLE "Imprographic 1 (Disc 2)"
FILE "01 - Cofeina 1.wav" WAVE
TRACK 01 AUDIO
TITLE "Cofeina 1"
PERFORMER "Piotr Damasiewicz Project"
ISRC PLH161300039
INDEX 01 00:00:00
FILE "02 - Cofeina 2.wav" WAVE
TRACK 02 AUDIO
TITLE "Cofeina 2"
PERFORMER "Piotr Damasiewicz Project"
ISRC PLH161300040
INDEX 01 00:00:00
FILE "03 - Cofeina 3.wav" WAVE
TRACK 03 AUDIO
TITLE "Cofeina 3"
PERFORMER "Piotr Damasiewicz Project"
ISRC PLH161300041
INDEX 01 00:00:00
FILE "04 - Cofeina 4.wav" WAVE
TRACK 04 AUDIO
TITLE "Cofeina 4"
PERFORMER "Piotr Damasiewicz Project"
ISRC PLH161300042
INDEX 01 00:00:00
По всем вопросам пишите личное сообщение пользователю M0p94ok.
06:35
134
Нет комментариев. Ваш будет первым!