Вы используете незарегистрированную версию компонента "Вкладки"!

Поиск

(Free Improvisation, psi) [CD] Tony Marsh - Quartet Improvisations - 2011, FLAC (tracks+.cue), lossless

(Free Improvisation, psi) [CD] Tony Marsh - Quartet Improvisations - 2011, FLAC (tracks+.cue), lossless
Треклист:
Tony Marsh / Quartet Improvisations
Жанр: Free Improvisation
Носитель: CD
Страна-производитель диска: UK
Год издания: 2011
Издатель (лейбл): psi
Номер по каталогу: 11.06
Аудиокодек: FLAC (*.flac)
Тип рипа: tracks+.cue
Битрейт аудио: lossless
Продолжительность: 56:15
Источник (релизер): whatcd (6060842)
Наличие сканов в содержимом раздачи: нет
Треклист:
1 Quartet 112-5 4:53
2 Quartet 101-1 2:42
3 Quartet 103-3 6:27
4 Quartet 204-7 2:25
5 Quartet 102-2 1:26
6 Quartet 207-9 4:06
7 Quartet 203-6 5:04
8 Quartet 208-10 6:14
9 Quartet 206-8 4:19
10 Quartet 111-4 5:25
11 Quartet 209-11 6:16
12 Quartet 209-12 6:14
 
Лог создания рипа
X Lossless Decoder version 20130720 (144.0)
XLD extraction logfile from 2013-08-13 23:25:04 +0400
Tony Marsh / Quartet Improvisations
Used drive : HL-DT-ST DVDRW GX30N (revision RP09)
Media type : Pressed CD
Ripper mode : XLD Secure Ripper
Disable audio cache : OK for the drive with a cache less than 1375KiB
Make use of C2 pointers : NO
Read offset correction : 6
Max retry count : 100
Gap status : Analyzed, Appended (except HTOA)
TOC of the extracted CD
Track | Start | Length | Start sector | End sector
---------------------------------------------------------
1 | 00:00:00 | 04:56:67 | 0 | 22266
2 | 04:56:67 | 02:46:00 | 22267 | 34716
3 | 07:42:67 | 06:31:50 | 34717 | 64091
4 | 14:14:42 | 02:28:73 | 64092 | 75264
5 | 16:43:40 | 01:30:00 | 75265 | 82014
6 | 18:13:40 | 04:10:00 | 82015 | 100764
7 | 22:23:40 | 05:08:00 | 100765 | 123864
8 | 27:31:40 | 06:18:01 | 123865 | 152215
9 | 33:49:41 | 04:23:00 | 152216 | 171940
10 | 38:12:41 | 05:29:00 | 171941 | 196615
11 | 43:41:41 | 06:20:01 | 196616 | 225116
12 | 50:01:42 | 06:14:01 | 225117 | 253167
AccurateRip Summary (DiscID: 0016eb5c-00d8e53e-910d2f0c)
Track 01 : OK (v2, confidence 2/2)
Track 02 : OK (v2, confidence 2/2)
Track 03 : OK (v2, confidence 2/2)
Track 04 : OK (v2, confidence 2/2)
Track 05 : OK (v2, confidence 2/2)
Track 06 : OK (v2, confidence 2/2)
Track 07 : OK (v2, confidence 2/2)
Track 08 : OK (v2, confidence 2/2)
Track 09 : OK (v2, confidence 2/2)
Track 10 : OK (v2, confidence 2/2)
Track 11 : OK (v2, confidence 2/2)
Track 12 : OK (v2, confidence 2/2)
->All tracks accurately ripped.
All Tracks
Album gain : 5.44 dB
Peak : 0.977234
Statistics
Read error : 0
Jitter error (maybe fixed) : 0
Retry sector count : 0
Damaged sector count : 0
Track 01
Filename : /Users/anch/Music/FLAC/Tony Marsh - 2011 - Quartet Improvisations [MP3 320]/01 - Quartet 112-5.mp3
/Users/anch/Music/FLAC/Tony Marsh - 2011 - Quartet Improvisations [MP3 V0]/01 - Quartet 112-5.mp3
/Users/anch/Music/FLAC/Tony Marsh - 2011 - Quartet Improvisations [FLAC]/01 - Quartet 112-5.flac
Pre-gap length : 00:02:00
Track gain : 4.38 dB
Peak : 0.977234
CRC32 hash (test run) : D3AE3298
CRC32 hash : D3AE3298
CRC32 hash (skip zero) : 23C7DEAB
AccurateRip v1 signature : 89B86177
AccurateRip v2 signature : 068CDCB8
->Accurately ripped (v2, confidence 2/2)
Statistics
Read error : 0
Jitter error (maybe fixed) : 0
Retry sector count : 0
Damaged sector count : 0
Track 02
Filename : /Users/anch/Music/FLAC/Tony Marsh - 2011 - Quartet Improvisations [MP3 320]/02 - Quartet 101-1.mp3
/Users/anch/Music/FLAC/Tony Marsh - 2011 - Quartet Improvisations [MP3 V0]/02 - Quartet 101-1.mp3
/Users/anch/Music/FLAC/Tony Marsh - 2011 - Quartet Improvisations [FLAC]/02 - Quartet 101-1.flac
Pre-gap length : 00:04:00
Track gain : 11.14 dB
Peak : 0.654724
CRC32 hash (test run) : 6C367770
CRC32 hash : 6C367770
CRC32 hash (skip zero) : CA1874F3
AccurateRip v1 signature : 7B6E660D
AccurateRip v2 signature : 7535E85B
->Accurately ripped (v2, confidence 2/2)
Statistics
Read error : 0
Jitter error (maybe fixed) : 0
Retry sector count : 0
Damaged sector count : 0
Track 03
Filename : /Users/anch/Music/FLAC/Tony Marsh - 2011 - Quartet Improvisations [MP3 320]/03 - Quartet 103-3.mp3
/Users/anch/Music/FLAC/Tony Marsh - 2011 - Quartet Improvisations [MP3 V0]/03 - Quartet 103-3.mp3
/Users/anch/Music/FLAC/Tony Marsh - 2011 - Quartet Improvisations [FLAC]/03 - Quartet 103-3.flac
Pre-gap length : 00:04:00
Track gain : 8.41 dB
Peak : 0.977234
CRC32 hash (test run) : DECC57CC
CRC32 hash : DECC57CC
CRC32 hash (skip zero) : 1D1CCB01
AccurateRip v1 signature : B03EFEC4
AccurateRip v2 signature : 24EA2CED
->Accurately ripped (v2, confidence 2/2)
Statistics
Read error : 0
Jitter error (maybe fixed) : 0
Retry sector count : 0
Damaged sector count : 0
Track 04
Filename : /Users/anch/Music/FLAC/Tony Marsh - 2011 - Quartet Improvisations [MP3 320]/04 - Quartet 204-7.mp3
/Users/anch/Music/FLAC/Tony Marsh - 2011 - Quartet Improvisations [MP3 V0]/04 - Quartet 204-7.mp3
/Users/anch/Music/FLAC/Tony Marsh - 2011 - Quartet Improvisations [FLAC]/04 - Quartet 204-7.flac
Pre-gap length : 00:04:00
Track gain : 5.79 dB
Peak : 0.705383
CRC32 hash (test run) : DBA7BDFE
CRC32 hash : DBA7BDFE
CRC32 hash (skip zero) : 19FA1494
AccurateRip v1 signature : 7072EF34
AccurateRip v2 signature : 85BD6EF6
->Accurately ripped (v2, confidence 2/2)
Statistics
Read error : 0
Jitter error (maybe fixed) : 0
Retry sector count : 0
Damaged sector count : 0
Track 05
Filename : /Users/anch/Music/FLAC/Tony Marsh - 2011 - Quartet Improvisations [MP3 320]/05 - Quartet 102-2.mp3
/Users/anch/Music/FLAC/Tony Marsh - 2011 - Quartet Improvisations [MP3 V0]/05 - Quartet 102-2.mp3
/Users/anch/Music/FLAC/Tony Marsh - 2011 - Quartet Improvisations [FLAC]/05 - Quartet 102-2.flac
Pre-gap length : 00:04:00
Track gain : 2.94 dB
Peak : 0.969116
CRC32 hash (test run) : 495ACA66
CRC32 hash : 495ACA66
CRC32 hash (skip zero) : 8E151537
AccurateRip v1 signature : 8939F4FC
AccurateRip v2 signature : 3D12ACE9
->Accurately ripped (v2, confidence 2/2)
Statistics
Read error : 0
Jitter error (maybe fixed) : 0
Retry sector count : 0
Damaged sector count : 0
Track 06
Filename : /Users/anch/Music/FLAC/Tony Marsh - 2011 - Quartet Improvisations [MP3 320]/06 - Quartet 207-9.mp3
/Users/anch/Music/FLAC/Tony Marsh - 2011 - Quartet Improvisations [MP3 V0]/06 - Quartet 207-9.mp3
/Users/anch/Music/FLAC/Tony Marsh - 2011 - Quartet Improvisations [FLAC]/06 - Quartet 207-9.flac
Pre-gap length : 00:04:00
Track gain : 5.64 dB
Peak : 0.977234
CRC32 hash (test run) : 32FF6BE0
CRC32 hash : 32FF6BE0
CRC32 hash (skip zero) : 8EC17B6E
AccurateRip v1 signature : 343736C5
AccurateRip v2 signature : 84218DCE
->Accurately ripped (v2, confidence 2/2)
Statistics
Read error : 0
Jitter error (maybe fixed) : 0
Retry sector count : 0
Damaged sector count : 0
Track 07
Filename : /Users/anch/Music/FLAC/Tony Marsh - 2011 - Quartet Improvisations [MP3 320]/07 - Quartet 203-6.mp3
/Users/anch/Music/FLAC/Tony Marsh - 2011 - Quartet Improvisations [MP3 V0]/07 - Quartet 203-6.mp3
/Users/anch/Music/FLAC/Tony Marsh - 2011 - Quartet Improvisations [FLAC]/07 - Quartet 203-6.flac
Pre-gap length : 00:04:00
Track gain : 10.34 dB
Peak : 0.761658
CRC32 hash (test run) : 09A15FB2
CRC32 hash : 09A15FB2
CRC32 hash (skip zero) : 1CD4887B
AccurateRip v1 signature : 23AF1A30
AccurateRip v2 signature : 058B1BF0
->Accurately ripped (v2, confidence 2/2)
Statistics
Read error : 0
Jitter error (maybe fixed) : 0
Retry sector count : 0
Damaged sector count : 0
Track 08
Filename : /Users/anch/Music/FLAC/Tony Marsh - 2011 - Quartet Improvisations [MP3 320]/08 - Quartet 208-10.mp3
/Users/anch/Music/FLAC/Tony Marsh - 2011 - Quartet Improvisations [MP3 V0]/08 - Quartet 208-10.mp3
/Users/anch/Music/FLAC/Tony Marsh - 2011 - Quartet Improvisations [FLAC]/08 - Quartet 208-10.flac
Pre-gap length : 00:04:00
Track gain : 4.12 dB
Peak : 0.977234
CRC32 hash (test run) : 4D11AAF7
CRC32 hash : 4D11AAF7
CRC32 hash (skip zero) : AED154AD
AccurateRip v1 signature : E120FF70
AccurateRip v2 signature : A5B9753C
->Accurately ripped (v2, confidence 2/2)
Statistics
Read error : 0
Jitter error (maybe fixed) : 0
Retry sector count : 0
Damaged sector count : 0
Track 09
Filename : /Users/anch/Music/FLAC/Tony Marsh - 2011 - Quartet Improvisations [MP3 320]/09 - Quartet 206-8.mp3
/Users/anch/Music/FLAC/Tony Marsh - 2011 - Quartet Improvisations [MP3 V0]/09 - Quartet 206-8.mp3
/Users/anch/Music/FLAC/Tony Marsh - 2011 - Quartet Improvisations [FLAC]/09 - Quartet 206-8.flac
Pre-gap length : 00:04:00
Track gain : 8.63 dB
Peak : 0.517487
CRC32 hash (test run) : C43D0F4D
CRC32 hash : C43D0F4D
CRC32 hash (skip zero) : 26852A8A
AccurateRip v1 signature : 0BFBC7F1
AccurateRip v2 signature : EE3A82B7
->Accurately ripped (v2, confidence 2/2)
Statistics
Read error : 0
Jitter error (maybe fixed) : 0
Retry sector count : 0
Damaged sector count : 0
Track 10
Filename : /Users/anch/Music/FLAC/Tony Marsh - 2011 - Quartet Improvisations [MP3 320]/10 - Quartet 111-4.mp3
/Users/anch/Music/FLAC/Tony Marsh - 2011 - Quartet Improvisations [MP3 V0]/10 - Quartet 111-4.mp3
/Users/anch/Music/FLAC/Tony Marsh - 2011 - Quartet Improvisations [FLAC]/10 - Quartet 111-4.flac
Pre-gap length : 00:04:00
Track gain : 2.87 dB
Peak : 0.977234
CRC32 hash (test run) : AE9BE296
CRC32 hash : AE9BE296
CRC32 hash (skip zero) : 185249A8
AccurateRip v1 signature : 079B03FC
AccurateRip v2 signature : 660FDE26
->Accurately ripped (v2, confidence 2/2)
Statistics
Read error : 0
Jitter error (maybe fixed) : 0
Retry sector count : 0
Damaged sector count : 0
Track 11
Filename : /Users/anch/Music/FLAC/Tony Marsh - 2011 - Quartet Improvisations [MP3 320]/11 - Quartet 209-11.mp3
/Users/anch/Music/FLAC/Tony Marsh - 2011 - Quartet Improvisations [MP3 V0]/11 - Quartet 209-11.mp3
/Users/anch/Music/FLAC/Tony Marsh - 2011 - Quartet Improvisations [FLAC]/11 - Quartet 209-11.flac
Pre-gap length : 00:04:00
Track gain : 5.47 dB
Peak : 0.977234
CRC32 hash (test run) : F709D15F
CRC32 hash : F709D15F
CRC32 hash (skip zero) : CE3913A5
AccurateRip v1 signature : 863C3946
AccurateRip v2 signature : 85D05419
->Accurately ripped (v2, confidence 2/2)
Statistics
Read error : 0
Jitter error (maybe fixed) : 0
Retry sector count : 0
Damaged sector count : 0
Track 12
Filename : /Users/anch/Music/FLAC/Tony Marsh - 2011 - Quartet Improvisations [MP3 320]/12 - Quartet 209-12.mp3
/Users/anch/Music/FLAC/Tony Marsh - 2011 - Quartet Improvisations [MP3 V0]/12 - Quartet 209-12.mp3
/Users/anch/Music/FLAC/Tony Marsh - 2011 - Quartet Improvisations [FLAC]/12 - Quartet 209-12.flac
Pre-gap length : 00:04:00
Track gain : 4.66 dB
Peak : 0.977234
CRC32 hash (test run) : 2D7A53EC
CRC32 hash : 2D7A53EC
CRC32 hash (skip zero) : D0BAB176
AccurateRip v1 signature : 692121AC
AccurateRip v2 signature : DCB52596
->Accurately ripped (v2, confidence 2/2)
Statistics
Read error : 0
Jitter error (maybe fixed) : 0
Retry sector count : 0
Damaged sector count : 0
No errors occurred
End of status report
 
Содержание индексной карты (.CUE)
TITLE "Quartet Improvisations"
PERFORMER "Tony Marsh"
CATALOG 5030243110629
REM GENRE "Free Jazz"
REM DATE "2011"
REM DISCID 910D2F0C
REM REPLAYGAIN_ALBUM_GAIN 5.44 dB
REM REPLAYGAIN_ALBUM_PEAK 0.977234
FILE "01 - Quartet 112-5.flac" WAVE
TRACK 01 AUDIO
TITLE "Quartet 112-5"
PERFORMER "Tony Marsh"
ISRC GBGKV1180601
REM REPLAYGAIN_TRACK_GAIN 4.38 dB
REM REPLAYGAIN_TRACK_PEAK 0.977234
INDEX 01 00:00:00
TRACK 02 AUDIO
TITLE "Quartet 101-1"
PERFORMER "Tony Marsh"
ISRC GBGKV1180602
REM REPLAYGAIN_TRACK_GAIN 11.14 dB
REM REPLAYGAIN_TRACK_PEAK 0.654724
INDEX 00 04:52:67
FILE "02 - Quartet 101-1.flac" WAVE
INDEX 01 00:00:00
TRACK 03 AUDIO
TITLE "Quartet 103-3"
PERFORMER "Tony Marsh"
ISRC GBGKV1180603
REM REPLAYGAIN_TRACK_GAIN 8.41 dB
REM REPLAYGAIN_TRACK_PEAK 0.977234
INDEX 00 02:42:00
FILE "03 - Quartet 103-3.flac" WAVE
INDEX 01 00:00:00
TRACK 04 AUDIO
TITLE "Quartet 204-7"
PERFORMER "Tony Marsh"
ISRC GBGKV1180604
REM REPLAYGAIN_TRACK_GAIN 5.79 dB
REM REPLAYGAIN_TRACK_PEAK 0.705383
INDEX 00 06:27:50
FILE "04 - Quartet 204-7.flac" WAVE
INDEX 01 00:00:00
TRACK 05 AUDIO
TITLE "Quartet 102-2"
PERFORMER "Tony Marsh"
ISRC GBGKV1180605
REM REPLAYGAIN_TRACK_GAIN 2.94 dB
REM REPLAYGAIN_TRACK_PEAK 0.969116
INDEX 00 02:24:73
FILE "05 - Quartet 102-2.flac" WAVE
INDEX 01 00:00:00
TRACK 06 AUDIO
TITLE "Quartet 207-9"
PERFORMER "Tony Marsh"
ISRC GBGKV1180606
REM REPLAYGAIN_TRACK_GAIN 5.64 dB
REM REPLAYGAIN_TRACK_PEAK 0.977234
INDEX 00 01:26:00
FILE "06 - Quartet 207-9.flac" WAVE
INDEX 01 00:00:00
TRACK 07 AUDIO
TITLE "Quartet 203-6"
PERFORMER "Tony Marsh"
ISRC GBGKV1180607
REM REPLAYGAIN_TRACK_GAIN 10.34 dB
REM REPLAYGAIN_TRACK_PEAK 0.761658
INDEX 00 04:06:00
FILE "07 - Quartet 203-6.flac" WAVE
INDEX 01 00:00:00
TRACK 08 AUDIO
TITLE "Quartet 208-10"
PERFORMER "Tony Marsh"
ISRC GBGKV1180608
REM REPLAYGAIN_TRACK_GAIN 4.12 dB
REM REPLAYGAIN_TRACK_PEAK 0.977234
INDEX 00 05:04:00
FILE "08 - Quartet 208-10.flac" WAVE
INDEX 01 00:00:00
TRACK 09 AUDIO
TITLE "Quartet 206-8"
PERFORMER "Tony Marsh"
ISRC GBGKV1180609
REM REPLAYGAIN_TRACK_GAIN 8.63 dB
REM REPLAYGAIN_TRACK_PEAK 0.517487
INDEX 00 06:14:01
FILE "09 - Quartet 206-8.flac" WAVE
INDEX 01 00:00:00
TRACK 10 AUDIO
TITLE "Quartet 111-4"
PERFORMER "Tony Marsh"
ISRC GBGKV1180610
REM REPLAYGAIN_TRACK_GAIN 2.87 dB
REM REPLAYGAIN_TRACK_PEAK 0.977234
INDEX 00 04:19:00
FILE "10 - Quartet 111-4.flac" WAVE
INDEX 01 00:00:00
TRACK 11 AUDIO
TITLE "Quartet 209-11"
PERFORMER "Tony Marsh"
ISRC GBGKV1180611
REM REPLAYGAIN_TRACK_GAIN 5.47 dB
REM REPLAYGAIN_TRACK_PEAK 0.977234
INDEX 00 05:25:00
FILE "11 - Quartet 209-11.flac" WAVE
INDEX 01 00:00:00
TRACK 12 AUDIO
TITLE "Quartet 209-12"
PERFORMER "Tony Marsh"
ISRC GBGKV1180612
REM REPLAYGAIN_TRACK_GAIN 4.66 dB
REM REPLAYGAIN_TRACK_PEAK 0.977234
INDEX 00 06:16:01
FILE "12 - Quartet 209-12.flac" WAVE
INDEX 01 00:00:00
Доп. информация: Recorded at St. Peter's, Whitstable, 11th August 2010
 
Состав
Cello – Hannah Marshall
Flute – Neil Metcalfe
Percussion – Tony Marsh
Violin – Alison Blunt
По всем вопросам пишите личное сообщение пользователю M0p94ok.
06:34
133
Нет комментариев. Ваш будет первым!