Вы используете незарегистрированную версию компонента "Вкладки"!

Поиск

(Free Jazz, Metal Jazz, Free Improvisation) [CD] Haitian Rail (Edward Ricart, Nick Millevoi, Dan Blacksberg, Kevin Shea) - Solarists - 2014, FLAC (tracks+.cue), lossless

(Free Jazz, Metal Jazz, Free Improvisation) [CD] Haitian Rail (Edward Ricart, Nick Millevoi, Dan Blacksberg, Kevin Shea) - Solarists - 2014, FLAC (tracks+.cue), lossless
Треклист:
Haitian Rail / Solarists
Жанр: Free Jazz, Metal Jazz, Free Improvisation
Носитель: CD
Страна-производитель диска: U.S.A.
Год издания: 2014
Издатель (лейбл): New Atlantis Records
Номер по каталогу: NA-CD-009
Аудиокодек: FLAC (*.flac)
Тип рипа: tracks+.cue
Битрейт аудио: lossless
Продолжительность: 54:53
Источник (релизер): я
Наличие сканов в содержимом раздачи: да
Треклист:
1. Trembler (Nick Millevoi) 7:17
2. Overburden (Edward Ricart) 9:27
3. Scintillator (Nick Millevoi) 10:29
4. Flare Star (Dan Blacksberg) 16:50
5. Seven Wastes (Nick Millevoi) 10:44
Recorded at Seizures Palace, Brooklyn, NY.
Dan Blacksberg – Trombone
Nick Millevoi – Guitar
Edward Ricart – Electric Bass
Kevin Shea – Drums
 
Лог создания рипа
Exact Audio Copy V1.0 beta 3 from 29. August 2011
EAC extraction logfile from 22. October 2014, 15:04
Haitian Rail / Solarists
Used drive : SlimtypeeNAU508 5 Adapter: 1 ID: 0
Read mode : Secure
Utilize accurate stream : Yes
Defeat audio cache : Yes
Make use of C2 pointers : No
Read offset correction : 6
Overread into Lead-In and Lead-Out : No
Fill up missing offset samples with silence : Yes
Delete leading and trailing silent blocks : No
Null samples used in CRC calculations : Yes
Used interface : Native Win32 interface for Win NT & 2000
Gap handling : Appended to previous track
Used output format : User Defined Encoder
Selected bitrate : 768 kBit/s
Quality : High
Add ID3 tag : No
Command line compressor : C:\Program Files (x86)\Exact Audio Copy\Flac\flac.exe
Additional command line options : -8 -V -T "ARTIST=%artist%" -T "TITLE=%title%" -T "ALBUM=%albumtitle%" -T "DATE=%year%" -T "TRACKNUMBER=%tracknr%" -T "TOTALTRACKS=%numtracks%" -T "GENRE=%genre%" -T "ALBUMARTIST=%albumartist%" -T "ALBUM ARTIST=%albumartist%" -T "COMMENT=EAC Secure Mode, Test & Copy, AccurateRip, FLAC -8" %source%
TOC of the extracted CD
Track | Start | Length | Start sector | End sector
---------------------------------------------------------
1 | 0:00.00 | 7:19.67 | 0 | 32991
2 | 7:19.67 | 9:27.62 | 32992 | 75578
3 | 16:47.54 | 10:29.52 | 75579 | 122805
4 | 27:17.31 | 16:51.41 | 122806 | 198671
5 | 44:08.72 | 10:44.24 | 198672 | 246995
Track 1
Filename C:\EAC rips\01 - Trembler.wav
Pre-gap length 0:00:02.00
Peak level 97.7 %
Extraction speed 1.1 X
Track quality 99.9 %
Test CRC 71AED1E4
Copy CRC 71AED1E4
Track not present in AccurateRip database
Copy OK
Track 2
Filename C:\EAC rips\02 - Overburden.wav
Pre-gap length 0:00:02.69
Peak level 97.7 %
Extraction speed 1.4 X
Track quality 100.0 %
Test CRC 4B475955
Copy CRC 4B475955
Track not present in AccurateRip database
Copy OK
Track 3
Filename C:\EAC rips\03 - Scintillator.wav
Pre-gap length 0:00:01.66
Peak level 97.7 %
Extraction speed 1.7 X
Track quality 100.0 %
Test CRC F60D35F0
Copy CRC F60D35F0
Track not present in AccurateRip database
Copy OK
Track 4
Filename C:\EAC rips\04 - Flare Star.wav
Pre-gap length 0:00:01.67
Peak level 97.7 %
Extraction speed 2.0 X
Track quality 100.0 %
Test CRC D882EB8F
Copy CRC D882EB8F
Track not present in AccurateRip database
Copy OK
Track 5
Filename C:\EAC rips\05 - Seven Wastes.wav
Pre-gap length 0:00:01.60
Peak level 97.7 %
Extraction speed 2.2 X
Track quality 100.0 %
Test CRC 00D6845D
Copy CRC 00D6845D
Track not present in AccurateRip database
Copy OK
None of the tracks are present in the AccurateRip database
No errors occurred
End of status report
---- CUETools DB Plugin V2.1.4
[CTDB TOCID: Yd_8TFH_KmR8h4aJtBCHWgm.iZQ-] disk not present in database
Submit result: Yd_8TFH_KmR8h4aJtBCHWgm.iZQ- has been uploaded
==== Log checksum 70206596E3A238B1EDF353A8D633107FC4EAEA66815BD833CC7ABE5EA6C1349A ====
 
Содержание индексной карты (.CUE)
REM GENRE Jazz
REM DATE 2014
REM DISCID 350CDD05
REM COMMENT "ExactAudioCopy v1.0b3"
PERFORMER "Haitian Rail"
TITLE "Solarists"
FILE "01 - Trembler.wav" WAVE
TRACK 01 AUDIO
TITLE "Trembler"
PERFORMER "Haitian Rail"
INDEX 01 00:00:00
TRACK 02 AUDIO
TITLE "Overburden"
PERFORMER "Haitian Rail"
INDEX 00 07:16:73
FILE "02 - Overburden.wav" WAVE
INDEX 01 00:00:00
TRACK 03 AUDIO
TITLE "Scintillator"
PERFORMER "Haitian Rail"
INDEX 00 09:25:71
FILE "03 - Scintillator.wav" WAVE
INDEX 01 00:00:00
TRACK 04 AUDIO
TITLE "Flare Star"
PERFORMER "Haitian Rail"
INDEX 00 10:27:60
FILE "04 - Flare Star.wav" WAVE
INDEX 01 00:00:00
TRACK 05 AUDIO
TITLE "Seven Wastes"
PERFORMER "Haitian Rail"
INDEX 00 16:49:56
FILE "05 - Seven Wastes.wav" WAVE
INDEX 01 00:00:00
Доп. информация: Travis Laplante and Ches Smith were members of the first Haitian Rail. Dan Blacksberg and Kevin Shea have took their place on this one.
По всем вопросам пишите личное сообщение пользователю M0p94ok.
06:32
109
Нет комментариев. Ваш будет первым!