Вы используете незарегистрированную версию компонента "Вкладки"!

Поиск

(Free Jazz, Free Improvisation) Peter Kowald & Vinny Golia - Mythology - 2009, FLAC (image+.cue), lossless

(Free Jazz, Free Improvisation) Peter Kowald & Vinny Golia - Mythology - 2009, FLAC (image+.cue), lossless
Треклист:
Peter Kowald & Vinny Golia / Mythology
Жанр: Free Jazz, Free Improvisation
Страна-производитель диска: Israel
Год издания: 2009
Издатель (лейбл): Kadima Collective
Номер по каталогу: KCR 20
Аудиокодек: FLAC (*.flac)
Тип рипа: image+.cue
Битрейт аудио: lossless
Продолжительность: 58:37
Источник (релизер): cd
Наличие сканов в содержимом раздачи: нет
Треклист:
1 Arco / Bb Clarinet 2:03
2 Pizz / Bass Clarinet 3:54
3 Arco / Bass Clarinet 3:29
4 Arco / Soprano 5:31
5 Prepared Pizz & Vocals / Piccolo 2:23
6 Arco & Vocal / Tarogoto 4:31
7 Pizz / Ab Clarinet 2:28
8 Arco / Contra Alto Clarinet 3:41
9 Pizz / Baritone 6:29
10 Pizz / Alto Flute 4:02
11 Arco / Sopranino 3:57
12 Arco / A Clarinet 6:00
13 Pizz / Chinese Flute 3:37
14 Pizz / G Flute 5:48
 
Лог создания рипа
Exact Audio Copy V1.0 beta 2 from 29. April 2011
EAC extraction logfile from 19. February 2013, 14:28
Peter Kowald & Vinny Golia / Mythology
Used drive : Optiarc DVD RW AD-7170A Adapter: 0 ID: 0
Read mode : Secure
Utilize accurate stream : Yes
Defeat audio cache : Yes
Make use of C2 pointers : No
Read offset correction : 48
Overread into Lead-In and Lead-Out : No
Fill up missing offset samples with silence : Yes
Delete leading and trailing silent blocks : No
Null samples used in CRC calculations : Yes
Used interface : Native Win32 interface for Win NT & 2000
Used output format : User Defined Encoder
Selected bitrate : 320 kBit/s
Quality : High
Add ID3 tag : No
Command line compressor : C:\Program Files\Exact Audio Copy\Flac\flac.exe
Additional command line options : -V -8 -T "Date=%year%" -T "Genre=%genre%" %source%
TOC of the extracted CD
Track | Start | Length | Start sector | End sector
---------------------------------------------------------
1 | 0:00.00 | 2:05.54 | 0 | 9428
2 | 2:05.54 | 3:57.73 | 9429 | 27276
3 | 6:03.52 | 3:32.01 | 27277 | 43177
4 | 9:35.53 | 5:34.07 | 43178 | 68234
5 | 15:09.60 | 2:25.50 | 68235 | 79159
6 | 17:35.35 | 4:34.20 | 79160 | 99729
7 | 22:09.55 | 2:30.47 | 99730 | 111026
8 | 24:40.27 | 3:43.70 | 111027 | 127821
9 | 28:24.22 | 6:33.16 | 127822 | 157312
10 | 34:57.38 | 4:05.59 | 157313 | 175746
11 | 39:03.22 | 4:01.37 | 175747 | 193858
12 | 43:04.59 | 6:03.10 | 193859 | 221093
13 | 49:07.69 | 3:40.58 | 221094 | 237651
14 | 52:48.52 | 5:48.35 | 237652 | 263786
Range status and errors
Selected range
Filename K:\ЕАС\Peter Kowald & Vinny Golia - Mythology.wav
Peak level 94.9 %
Extraction speed 2.0 X
Range quality 99.9 %
Test CRC 0266C320
Copy CRC 0266C320
Copy OK
No errors occurred
AccurateRip summary
Track 1 accurately ripped (confidence 1) [C9ADD24A] (AR v1)
Track 2 accurately ripped (confidence 1) [8B225AFD] (AR v1)
Track 3 accurately ripped (confidence 1) [3E815104] (AR v1)
Track 4 accurately ripped (confidence 1) [31E752DF] (AR v1)
Track 5 accurately ripped (confidence 1) [59A0665E] (AR v1)
Track 6 accurately ripped (confidence 1) [8F2512C1] (AR v1)
Track 7 accurately ripped (confidence 1) [D0C9C941] (AR v1)
Track 8 accurately ripped (confidence 1) [2FE4D4EF] (AR v1)
Track 9 accurately ripped (confidence 1) [40DD9B86] (AR v1)
Track 10 accurately ripped (confidence 1) [322264A2] (AR v1)
Track 11 accurately ripped (confidence 1) [5B016C6D] (AR v1)
Track 12 accurately ripped (confidence 1) [5C898FEA] (AR v1)
Track 13 accurately ripped (confidence 1) [92BCE1D5] (AR v1)
Track 14 accurately ripped (confidence 1) [C162B1FF] (AR v1)
All tracks accurately ripped
End of status report
==== Log checksum 66173FEBF5EAEF667EEE4A4FCDAB8D8FA6EDE7AA6A4CACFB9DE1DD741661443C ====
 
Содержание индексной карты (.CUE)
REM GENRE Jazz
REM DATE 2008
REM DISCID C40DBD0E
REM COMMENT "ExactAudioCopy v1.0b2"
PERFORMER " Peter Kowald & Vinny Golia"
TITLE "Mythology"
FILE "Peter Kowald & Vinny Golia - Mythology.flac" WAVE
TRACK 01 AUDIO
TITLE "Arco / Bb Clarinet "
PERFORMER " Peter Kowald & Vinny Golia"
ISRC 000000000000
INDEX 01 00:00:00
TRACK 02 AUDIO
TITLE "Pizz / Bass Clarinet "
PERFORMER " Peter Kowald & Vinny Golia"
ISRC 000000000000
INDEX 01 02:05:54
TRACK 03 AUDIO
TITLE "Arco / Bass Clarinet "
PERFORMER " Peter Kowald & Vinny Golia"
ISRC 000000000000
INDEX 01 06:03:52
TRACK 04 AUDIO
TITLE "Arco / Soprano "
PERFORMER " Peter Kowald & Vinny Golia"
ISRC 000000000000
INDEX 01 09:35:53
TRACK 05 AUDIO
TITLE "Prepared Pizz & Vocals / Piccolo"
PERFORMER " Peter Kowald & Vinny Golia"
ISRC 000000000000
INDEX 01 15:09:60
TRACK 06 AUDIO
TITLE "Arco & Vocal / Tarogoto "
PERFORMER " Peter Kowald & Vinny Golia"
ISRC 000000000000
INDEX 01 17:35:35
TRACK 07 AUDIO
TITLE "Pizz / Ab Clarinet "
PERFORMER " Peter Kowald & Vinny Golia"
ISRC 000000000000
INDEX 01 22:09:55
TRACK 08 AUDIO
TITLE "Arco / Contra Alto Clarinet "
PERFORMER " Peter Kowald & Vinny Golia"
ISRC 000000000000
INDEX 01 24:40:27
TRACK 09 AUDIO
TITLE "Pizz / Baritone "
PERFORMER " Peter Kowald & Vinny Golia"
ISRC 000000000000
INDEX 01 28:24:22
TRACK 10 AUDIO
TITLE "Pizz / Alto Flute "
PERFORMER " Peter Kowald & Vinny Golia"
ISRC 000000000000
INDEX 01 34:57:38
TRACK 11 AUDIO
TITLE "Arco / Sopranino"
PERFORMER " Peter Kowald & Vinny Golia"
ISRC 000000000000
INDEX 01 39:03:22
TRACK 12 AUDIO
TITLE "Arco / A Clarinet"
PERFORMER " Peter Kowald & Vinny Golia"
ISRC 000000000000
INDEX 01 43:04:59
TRACK 13 AUDIO
TITLE "Pizz / Chinese Flute"
PERFORMER " Peter Kowald & Vinny Golia"
ISRC 000000000000
INDEX 01 49:07:69
TRACK 14 AUDIO
TITLE "Pizz / G Flute"
PERFORMER " Peter Kowald & Vinny Golia"
ISRC 000000000000
INDEX 01 52:48:52
Доп. информация: Recorded 4/16/2000, Newzone Studio, Los Angeles
 
Состав
Baritone Saxophone – Vinny Golia (tracks: 9)
Bass Clarinet – Vinny Golia (tracks: 2, 3)
Clarinet [A] – Vinny Golia (tracks: 12)
Clarinet [Ab] – Vinny Golia (tracks: 7)
Clarinet [Bb] – Vinny Golia (tracks: 1)
Clarinet [Contra Alto] – Vinny Golia (tracks: 8)
Double Bass – Peter Kowald (tracks: 1 to 4, 6 to 14)
Double Bass [Prepared] – Peter Kowald (tracks: 5)
Flute [Alto] – Vinny Golia (tracks: 10)
Flute [Chinese] – Vinny Golia (tracks: 13)
Flute [G] – Vinny Golia (tracks: 14)
Piccolo Flute – Vinny Golia (tracks: 5)
Sopranino Saxophone – Vinny Golia (tracks: 11)
Soprano Saxophone – Vinny Golia (tracks: 4)
Tárogató – Vinny Golia (tracks: 6)
Vocals – Peter Kowald (tracks: 5, 6)
Any questions -> support@pro-jazz.com. По всем вопросам пишите -> support@pro-jazz.com
09:14
179
Нет комментариев. Ваш будет первым!