Вы используете незарегистрированную версию компонента "Вкладки"!

Поиск

(Free Jazz) Adam Lane's Full Throttle Orchestra - No(w) Music - 2001, FLAC (tracks+.cue), lossless

(Free Jazz) Adam Lane's Full Throttle Orchestra - No(w) Music - 2001, FLAC (tracks+.cue), lossless
Треклист:
Adam Lane's Full Throttle Orchestra / No(w) Music
Жанр: Free Jazz
Страна-производитель диска: USA
Год издания: 2001
Издатель (лейбл): Cadence Jazz Records
Номер по каталогу: CJR1133
Аудиокодек: FLAC (*.flac)
Тип рипа: tracks+.cue
Битрейт аудио: lossless
Продолжительность: 1:06:08
Источник (релизер): CD
Наличие сканов в содержимом раздачи: да
Треклист:
1. Smack (14:02)
2. House of Elegant (8:17)
3. Grape Ape Meets the Working Man (12:04)
4. Ne wOL dTunE (7:24)
5. Goro Tokimune (4:52)
6. Post-Industrial Folksong (3:15)
7. Blues with Fuzz (turn the guitar up to ten and put three distortion boxes on that acoustic bass) (12:26)
8. Mr. Furry Little Cute Little Mr. Bunny, Hopping Along Nicely (3:16)
 
Лог создания рипа
Exact Audio Copy V1.0 beta 2 from 29. April 2011
EAC extraction logfile from 17. February 2013, 0:04
Adam Lane's Full Throttle Orchestra / No(w) Music
Used drive : Optiarc DVD RW AD-5280S Adapter: 1 ID: 1
Read mode : Secure
Utilize accurate stream : Yes
Defeat audio cache : Yes
Make use of C2 pointers : No
Read offset correction : 48
Overread into Lead-In and Lead-Out : No
Fill up missing offset samples with silence : Yes
Delete leading and trailing silent blocks : No
Null samples used in CRC calculations : Yes
Used interface : Native Win32 interface for Win NT & 2000
Gap handling : Appended to previous track
Used output format : User Defined Encoder
Selected bitrate : 128 kBit/s
Quality : High
Add ID3 tag : No
Command line compressor : C:\Program Files\FLAC\flac.exe
Additional command line options : -V -8 -T "Genre=%genre%" -T "Artist=%artist%" -T "Title=%title%" -T "Album=%albumtitle%" -T "Date=%year%" -T "Tracknumber=%tracknr%" -T "Comment=%comment%" %source%
TOC of the extracted CD
Track | Start | Length | Start sector | End sector
---------------------------------------------------------
1 | 0:00.00 | 14:06.40 | 0 | 63489
2 | 14:06.40 | 8:22.00 | 63490 | 101139
3 | 22:28.40 | 12:08.27 | 101140 | 155766
4 | 34:36.67 | 7:28.18 | 155767 | 189384
5 | 42:05.10 | 4:55.57 | 189385 | 211566
6 | 47:00.67 | 3:18.42 | 211567 | 226458
7 | 50:19.34 | 12:29.66 | 226459 | 282699
8 | 62:49.25 | 3:19.15 | 282700 | 297639
Track 1
Filename C:\Adam Lane's Full Throttle Orchestra (2001) - No(w) Music\01 - Smack.wav
Pre-gap length 0:00:02.00
Peak level 97.7 %
Extraction speed 3.0 X
Track quality 100.0 %
Test CRC 7817AE32
Copy CRC 7817AE32
Track not present in AccurateRip database
Copy OK
Track 2
Filename C:\Adam Lane's Full Throttle Orchestra (2001) - No(w) Music\02 - House of Elegant.wav
Peak level 97.7 %
Extraction speed 3.4 X
Track quality 99.9 %
Test CRC 2056F676
Copy CRC 2056F676
Track not present in AccurateRip database
Copy OK
Track 3
Filename C:\Adam Lane's Full Throttle Orchestra (2001) - No(w) Music\03 - Grape Ape Meets the Working Man.wav
Peak level 97.7 %
Extraction speed 4.2 X
Track quality 100.0 %
Test CRC 662C9EB4
Copy CRC 662C9EB4
Track not present in AccurateRip database
Copy OK
Track 4
Filename C:\Adam Lane's Full Throttle Orchestra (2001) - No(w) Music\04 - Ne wOL dTunE.wav
Peak level 97.7 %
Extraction speed 4.5 X
Track quality 100.0 %
Test CRC 1155350C
Copy CRC 1155350C
Track not present in AccurateRip database
Copy OK
Track 5
Filename C:\Adam Lane's Full Throttle Orchestra (2001) - No(w) Music\05 - Goro Tokimune.wav
Peak level 97.7 %
Extraction speed 4.6 X
Track quality 100.0 %
Test CRC 0C0284B3
Copy CRC 0C0284B3
Track not present in AccurateRip database
Copy OK
Track 6
Filename C:\Adam Lane's Full Throttle Orchestra (2001) - No(w) Music\06 - Post-Industrial Folksong.wav
Peak level 97.7 %
Extraction speed 3.9 X
Track quality 99.9 %
Test CRC 326567D0
Copy CRC 326567D0
Track not present in AccurateRip database
Copy OK
Track 7
Filename C:\Adam Lane's Full Throttle Orchestra (2001) - No(w) Music\07 - Blues With Fuzz (turn the guitar up to ten and put three distortion boxes on that acoustic bass).wav
Peak level 97.7 %
Extraction speed 5.4 X
Track quality 100.0 %
Test CRC C3621D76
Copy CRC C3621D76
Track not present in AccurateRip database
Copy OK
Track 8
Filename C:\Adam Lane's Full Throttle Orchestra (2001) - No(w) Music\08 - Mr. Furry Little Cute Little Mr. Bunny, Hopping Along Nicely.wav
Peak level 97.7 %
Extraction speed 4.3 X
Track quality 99.9 %
Test CRC 23F29ED8
Copy CRC 23F29ED8
Track not present in AccurateRip database
Copy OK
None of the tracks are present in the AccurateRip database
No errors occurred
End of status report
==== Log checksum 25303AE6DBF32FC0A2EEF3142FC551418F4EED1A79BD426126B4EBC19296113E ====
 
Содержание индексной карты (.CUE)
REM GENRE Jazz
REM DATE 2001
REM DISCID 660F8008
REM COMMENT "ExactAudioCopy v1.0b2"
PERFORMER "Adam Lane's Full Throttle Orchestra"
TITLE "No(w) Music"
FILE "01 - Smack.wav" WAVE
TRACK 01 AUDIO
TITLE "Smack"
PERFORMER "Adam Lane's Full Throttle Orchestra"
INDEX 01 00:00:00
FILE "02 - House of Elegant.wav" WAVE
TRACK 02 AUDIO
TITLE "House of Elegant"
PERFORMER "Adam Lane's Full Throttle Orchestra"
INDEX 01 00:00:00
FILE "03 - Grape Ape Meets the Working Man.wav" WAVE
TRACK 03 AUDIO
TITLE "Grape Ape Meets the Working Man"
PERFORMER "Adam Lane's Full Throttle Orchestra"
INDEX 01 00:00:00
FILE "04 - Ne wOL dTunE.wav" WAVE
TRACK 04 AUDIO
TITLE "Ne wOL dTunE"
PERFORMER "Adam Lane's Full Throttle Orchestra"
INDEX 01 00:00:00
FILE "05 - Goro Tokimune.wav" WAVE
TRACK 05 AUDIO
TITLE "Goro Tokimune"
PERFORMER "Adam Lane's Full Throttle Orchestra"
INDEX 01 00:00:00
FILE "06 - Post-Industrial Folksong.wav" WAVE
TRACK 06 AUDIO
TITLE "Post-Industrial Folksong"
PERFORMER "Adam Lane's Full Throttle Orchestra"
INDEX 01 00:00:00
FILE "07 - Blues With Fuzz (turn the guitar up to ten and put three distortion boxes on that acoustic bass).wav" WAVE
TRACK 07 AUDIO
TITLE "Blues With Fuzz (turn the guitar up to ten and put three distortion boxes on ..."
PERFORMER "Adam Lane's Full Throttle Orchestra"
INDEX 01 00:00:00
FILE "08 - Mr. Furry Little Cute Little Mr. Bunny, Hopping Along Nicely.wav" WAVE
TRACK 08 AUDIO
TITLE "Mr. Furry Little Cute Little Mr. Bunny, Hopping Along Nicely"
PERFORMER "Adam Lane's Full Throttle Orchestra"
INDEX 01 00:00:00
 
Доп. информация
Recorded, mixed and mastered by Myles Boisen at Guerrilla Recording/Headless Buddah Mastering Lab, Oakland, C.A. Oct. 1999
 
Об исполнителе (группе)
Combining influences from Duke Ellington, Karlheinz Stockhausen, and Melt Banana, bassist and composer Adam Lane stretches the terms "jazz" and "chamber Music" beyond convention. His blend of music and performance art takes listeners on a meticulously orchestrated joyride, with horns, strings, electronics, spoken word, and the occasional vacuum cleaner. As a composer he has been recognized by critics world wide as "innovative" (Signal to Noise) and "forward thinking," (Jazziz) and as a player he has contributed to important new recordings by artist such as John Tchicai and Tom Waits. Forthcoming projects include FO(U)R BEING(S) by the Adam Lane Quartet, featuring John Tchicai, Paul Smoker, and Barry Altschul (C.I.M.P), DUO MUSIC with Blaise Siwula (Cadence Jazz) and NOWHERE ZEN: Chamber Works and Solo Statements (Evander Music), all to be released in late summer 2002. He will be recording a cd of duo music with John Tchicai in Oct. 2002 to be released on the C.I.M.P label. In October of 1999 Lane's recording Hollywood Wedding was released on Cadence Jazz Records to critical acclaim. The recording features 10 of Lane’s original compositions performed by 6 different ensembles under his leadership. The ensembles range from a large 20 piece improvising orchestra with a mix of traditional jazz interments, electronics, processing, and risquЋ vocalizing, to electric chamber to acoustic trios to Mingus-style small big bands. Sam Prestiani of Jazziz magazine described Lane’s work on Hollywood Wedding as "pushing beyond predictability," and said further, "Lane's confidence and confrontational prowess as well as his abiding sense of lyricism and heavy-groove power place him in the lineage of forward-jazz adventurism." Jon Morgan of Signal to Noise magazine said, "Those who listen to [Hollywood Wedding] will hear an ambitious composer who clearly has the goods, one who can command a large ensemble with daring eloquence or just as quickly blow the roof off the joint with unleashed cacophony." Also released on Cadence Jazz was NO(W) MUSIC with his band THE FULL THROTTLE ORCHESTRA. The Orchestra has been active with the same personnel for 4 years making it one of the only continually active creative music ensembles in the Bay Area. The band features Jeff Chan and Aaron Bennett on reeds, Darren Johnston on trumpet, John Finkbeiner on guitar, Vijay Anderson on percussion, Adam Lane on bass and electronics and guest guitarist Myles Boisen. The band combines all the characteristics of Lane’s variegated writing style including a shifting creative aesthetic that might draw inspiration from Cecil Taylor and early Black Sabbath at the same time. With both guitarist Finkbeiner and Lane freely utilizing electronics and processing, the rhythm section might shift from their traditional role to a sound that is closer to David Tudor in the same tune. All members of the band are active composers and bandleaders in their own rights, with each maintaining projects in creative music as well as straight-ahead jazz. In April 2000 he was featured on a new recording by free jazz pioneer John Tchicai. JOHN TCHICAI'S INFINTESIMAL FLASH, was released on Buzz records to critical acclaim. Wire magazine reviewed ININTESIMAL FLASH in July 2000 saying, "Lane’s work is particularly impressive, spinning dense waves of string-strum around Tchicai’s keening lines." Lane’s collaboration with Tchicai continued on his own FO(U)R BEING(S) CD on C.I.M.P. This project includes legendary drummer Barry Altschul, and trumpet virtuoso Paul Smoker and features 6 of Lane’s compositions. This record is straight-ahead free jazz, with music developed for maximum collective improvising activity. Tchicai and Lane will continue their collaboration on a new duo cd they will record in Oct. 2002 for the C.I.M.P label. Lane has also composed a variety of works for chamber ensembles. His piece MINI PIG 2000 was commissioned by the California Ear Unit and performed at LACMA in January of 2000. The piece, scored for violin, piccolo, bass clarinet, piano, amplified processed double bass,electric bass with distortion and drum kit, utilizes this traditional ensemble in drastically untraditional ways, making the EAR unit sound closer to a blend of Cecil Taylor and Hardcore punk than the usual chamber ensemble sound. Lane has written two other works for the California Ear Unit, both of which have been performed as part of the Arcosanti Young Composers Conference: ELVIS’ TOMB IS EMPTY, performed at Arcosanti in 1997 and FIRE UP THE PIG, in 1998. Both pieces utilize amplified strings with distortion, electronics, vocal screams through a megaphone, muliphonic woodwind parts, a percussion part that includes a vacuum cleaner, and at times deafening volumes; taking the ensemble into sonic space not usually explored by conventional chamber players or chamber composers. Lane currently divides his time between New York and San Francisco. In NY he performs regularly with a trio featuring Louie Bellogenis and Lou Grassi, and works in the Andrew Drury Quartet featuring percussionist DruryХs compositions with Lane, guitarist Brad Shepik, and saxophonist Briggan Krauss. Lane has a BA in music from Wesleyan University where he studied with Anthony Braxton, and an MFA from CalArts where he studied with Wadada Leo Smith and Daniel Rothman. In 1996 he was awarded a Paternings scholarship for study at the Darmstadt School for New Music. At Darmstadt he attended master classes in composition with Karlheinz Stockhausen, Klaus Huber, Mathias Spahlinger, and studied double bass with Italian virtuoso Stefano Scodanibbio. He is recipient of numerous awards and grants for composition and performance including the 2002 New Langton Arts Bay Area Creative Artist award and the 2000 Julius Hemphill Award for outstanding large ensemble composition. ~ adamlane.org
 
Об альбоме (сборнике)
This is the follow-up to Adam’s amazing recording debut on Cadence Jazz 1104, Hollywood Wedding. Today many have come to expect brilliance from Mr. Lane, but, after listening to the first two Cadence recordings, obviously it was all in place by the end of the 1990s. ~ cadencejazzrecords.com
Big band jazz never sounded so good, or so perverse, depending on your perspective, as it does with Adam Lane's Full Throttle Orchestra. Contradictions abound, as the "Orchestra" is not really an orchestra at all, consisting of merely six or seven musicians, depending on the piece. Yet the sounds are so robust, so huge, that you could be excused for thinking you were listening to a fifteen or twenty piece ensemble. Lane is a prankster at heart: Not only are his song titles clever, but he enjoys setting up the listener by leading him down a path and then switching gears on a moment's notice. Fortunately, his writing skills are rock solid, and he enjoys a breadth of appreciation for a range of styles, from whip-thrashing free-style jazz to hard-hitting blues to new electronica to hard bop. It is all swirled together in a mélange of weirdness, with the complicated written parts relying on difficult rhythmic twists. Fortunately, the individual improvisations are up to the task, with some particularly hot solos from electric guitarist John Finkbeiner and saxophonist Jeff Chan. There's hardly a weak moment on this full-length recording, which is a blast from beginning to end. Sure, it is not all easy listening, but baby, it swings and rocks, and touches outer space in the process. Sun Ra, catch it if you can! ~ steve loewy, allmusic.com
 
Состав
Vijay Anderson - drums
Aaron Bennett - tenor, soprano saxophones, clarinet
Myles Boisen - electric guitar (tracks 1, 7)
Jeff Chan - tenor saxophone, flute, bass clarinet
John Finkbeiner - electric guitar
Darren Johnston - trumpet
Adam Lane - bass, live electronics
Any questions -> support@pro-jazz.com. По всем вопросам пишите -> support@pro-jazz.com
09:14
232
Нет комментариев. Ваш будет первым!