Вы используете незарегистрированную версию компонента "Вкладки"!

Поиск

(Contemporary Jazz, Free Improvisation) Henry Threadgill's Zooid - Up Popped the Two Lips - 2001, FLAC (tracks+.cue), lossless

(Contemporary Jazz, Free Improvisation) Henry Threadgill's Zooid - Up Popped the Two Lips - 2001, FLAC (tracks+.cue), lossless
Треклист:
Henry Threadgill's Zooid / Up Popped the Two Lips
Жанр: Contemporary Jazz, Free Improvisation
Страна-производитель диска: U.S.A.
Год издания: 2001
Издатель (лейбл): Pi Recordings
Номер по каталогу: PI 02
Аудиокодек: FLAC (*.flac)
Тип рипа: tracks+.cue
Битрейт аудио: lossless
Продолжительность: 45:29
Источник (релизер): Max Monteiro
Наличие сканов в содержимом раздачи: да
Треклист:
1. Tickled Pink 6:55
2. Dark Black 5:27
3. Look 4:54
4. Around My Goose 8:00
5. Calm Down 5:35
6. Did You See That 7:44
7. Do the Needful 6:54
All compositions and arrangements by Henry Threadgill.
 
Лог создания рипа
Exact Audio Copy V1.0 beta 3 from 29. August 2011
EAC extraction logfile from 19. February 2013, 9:13
Henry Threadgill's Zooid / Up Popped the Two Lips
Used drive : SlimtypeeNAU508 5 Adapter: 1 ID: 0
Read mode : Secure
Utilize accurate stream : Yes
Defeat audio cache : Yes
Make use of C2 pointers : No
Read offset correction : 6
Overread into Lead-In and Lead-Out : No
Fill up missing offset samples with silence : Yes
Delete leading and trailing silent blocks : No
Null samples used in CRC calculations : Yes
Used interface : Native Win32 interface for Win NT & 2000
Gap handling : Appended to previous track
Used output format : User Defined Encoder
Selected bitrate : 768 kBit/s
Quality : High
Add ID3 tag : No
Command line compressor : C:\Program Files (x86)\Exact Audio Copy\Flac\flac.exe
Additional command line options : -8 -V -T "ARTIST=%artist%" -T "TITLE=%title%" -T "ALBUM=%albumtitle%" -T "DATE=%year%" -T "TRACKNUMBER=%tracknr%" -T "GENRE=%genre%" -T "PERFORMER=%albuminterpret%" -T "COMPOSER=%composer%" %haslyrics%--tag-from-file=LYRICS="%lyricsfile%"%haslyrics% -T "ALBUMARTIST=%albumartist%" -T "DISCNUMBER=%cdnumber%" -T "TOTALDISCS=%totalcds%" -T "TOTALTRACKS=%numtracks%" -T "COMMENT=%comment%" %source% -o %dest%
TOC of the extracted CD
Track | Start | Length | Start sector | End sector
---------------------------------------------------------
1 | 0:00.00 | 6:54.45 | 0 | 31094
2 | 6:54.45 | 5:26.70 | 31095 | 55614
3 | 12:21.40 | 4:54.15 | 55615 | 77679
4 | 17:15.55 | 8:00.20 | 77680 | 113699
5 | 25:16.00 | 5:35.05 | 113700 | 138829
6 | 30:51.05 | 7:43.62 | 138830 | 173616
7 | 38:34.67 | 6:53.63 | 173617 | 204654
Track 1
Filename C:\EAC rips\01 - Tickled Pink.wav
Pre-gap length 0:00:02.00
Peak level 99.0 %
Extraction speed 1.1 X
Track quality 100.0 %
Test CRC 2066E3B7
Copy CRC 2066E3B7
Accurately ripped (confidence 15) [B35D1608] (AR v1)
Copy OK
Track 2
Filename C:\EAC rips\02 - Dark Black.wav
Pre-gap length 0:00:00.68
Peak level 98.9 %
Extraction speed 1.3 X
Track quality 100.0 %
Test CRC A09D74A2
Copy CRC A09D74A2
Accurately ripped (confidence 15) [DAB6984B] (AR v1)
Copy OK
Track 3
Filename C:\EAC rips\03 - Look.wav
Pre-gap length 0:00:00.68
Peak level 99.2 %
Extraction speed 1.4 X
Track quality 100.0 %
Test CRC 7867714A
Copy CRC 7867714A
Accurately ripped (confidence 15) [4231DE66] (AR v1)
Copy OK
Track 4
Filename C:\EAC rips\04 - Around My Goose.wav
Pre-gap length 0:00:00.68
Peak level 98.9 %
Extraction speed 1.6 X
Track quality 100.0 %
Test CRC 9A8F42A3
Copy CRC 9A8F42A3
Accurately ripped (confidence 15) [5E28A60C] (AR v1)
Copy OK
Track 5
Filename C:\EAC rips\05 - Calm Down.wav
Pre-gap length 0:00:00.68
Peak level 98.9 %
Extraction speed 1.7 X
Track quality 100.0 %
Test CRC 4E074A75
Copy CRC 4E074A75
Accurately ripped (confidence 15) [485BFD0C] (AR v1)
Copy OK
Track 6
Filename C:\EAC rips\06 - Did You See That.wav
Pre-gap length 0:00:00.68
Peak level 98.8 %
Extraction speed 1.8 X
Track quality 99.9 %
Test CRC A73279E1
Copy CRC A73279E1
Accurately ripped (confidence 15) [89BAFD63] (AR v1)
Copy OK
Track 7
Filename C:\EAC rips\07 - Do the Needful.wav
Pre-gap length 0:00:00.68
Peak level 99.0 %
Extraction speed 2.0 X
Track quality 100.0 %
Test CRC 95907C0A
Copy CRC 95907C0A
Accurately ripped (confidence 15) [B2B1449F] (AR v1)
Copy OK
All tracks accurately ripped
No errors occurred
End of status report
---- CUETools DB Plugin V2.1.4
[CTDB TOCID: 0lSAbgAb9mip8hA7qIJ9Cc5lIzo-] found
Submit result: 0lSAbgAb9mip8hA7qIJ9Cc5lIzo- has been confirmed
Track | CTDB Status
1 | (1/1) Accurately ripped
2 | (1/1) Accurately ripped
3 | (1/1) Accurately ripped
4 | (1/1) Accurately ripped
5 | (1/1) Accurately ripped
6 | (1/1) Accurately ripped
7 | (1/1) Accurately ripped
==== Log checksum EE8E6990BC4027A129C997F4360E8C64BE90DC9056501A909CEEEC5A4F4F63EC ====
 
Содержание индексной карты (.CUE)
REM GENRE Jazz
REM DATE 2001
REM DISCID 520AA807
REM COMMENT "ExactAudioCopy v1.0b3"
PERFORMER "Henry Threadgill's Zooid"
TITLE "Up Popped the Two Lips"
FILE "01 - Tickled Pink.wav" WAVE
TRACK 01 AUDIO
TITLE "Tickled Pink"
PERFORMER "Henry Threadgill's Zooid"
FLAGS DCP
INDEX 01 00:00:00
TRACK 02 AUDIO
TITLE "Dark Black"
PERFORMER "Henry Threadgill's Zooid"
FLAGS DCP
INDEX 00 06:53:52
FILE "02 - Dark Black.wav" WAVE
INDEX 01 00:00:00
TRACK 03 AUDIO
TITLE "Look"
PERFORMER "Henry Threadgill's Zooid"
FLAGS DCP
INDEX 00 05:26:02
FILE "03 - Look.wav" WAVE
INDEX 01 00:00:00
TRACK 04 AUDIO
TITLE "Around My Goose"
PERFORMER "Henry Threadgill's Zooid"
FLAGS DCP
INDEX 00 04:53:22
FILE "04 - Around My Goose.wav" WAVE
INDEX 01 00:00:00
TRACK 05 AUDIO
TITLE "Calm Down"
PERFORMER "Henry Threadgill's Zooid"
FLAGS DCP
INDEX 00 07:59:27
FILE "05 - Calm Down.wav" WAVE
INDEX 01 00:00:00
TRACK 06 AUDIO
TITLE "Did You See That"
PERFORMER "Henry Threadgill's Zooid"
FLAGS DCP
INDEX 00 05:34:12
FILE "06 - Did You See That.wav" WAVE
INDEX 01 00:00:00
TRACK 07 AUDIO
TITLE "Do the Needful"
PERFORMER "Henry Threadgill's Zooid"
FLAGS DCP
INDEX 00 07:42:69
FILE "07 - Do the Needful.wav" WAVE
INDEX 01 00:00:00
Доп. информация: Recorded at Orange Music Sound Studio, West Orange, NJ, April 28th, 29th, and 30th, 2001.
 
Состав
Henry Threadgill – Alto Sax and Flute
Liberty Ellman – Acoustic Guitar
Tarik Benbrahim – Oud
Jose Davila – Tuba
Dana Leong – Cello
Dafnis Prieto – Drums
Any questions -> support@pro-jazz.com. По всем вопросам пишите -> support@pro-jazz.com
09:13
171
Нет комментариев. Ваш будет первым!