Вы используете незарегистрированную версию компонента "Вкладки"!

Поиск

(Free Improvisation, Free Jazz) Frank Gratkowski Quartet (Dieter Manderscheid, Wolter Wierbos, Gerry Hemingway) - Le Vent Et La Gorge - 2012, FLAC (image+.cue), lossless

(Free Improvisation, Free Jazz) Frank Gratkowski Quartet (Dieter Manderscheid, Wolter Wierbos, Gerry Hemingway) - Le Vent Et La Gorge - 2012, FLAC (image+.cue), lossless
Треклист:
Frank Gratkowski Quartet / Le Vent Et La Gorge
Жанр: Free Improvisation, Free Jazz
Страна-производитель диска: UK
Год издания: 2012
Издатель (лейбл): Leo Records
Номер по каталогу: CD LR 655
Аудиокодек: FLAC (*.flac)
Тип рипа: image+.cue
Битрейт аудио: lossless
Продолжительность: 74:34
Источник (релизер): cd
Наличие сканов в содержимом раздачи: нет
Треклист:
Harm-oh-nie (30:50)
1 Untitled 2:57
2 Untitled 5:34
3 Untitled 5:39
4 Untitled 2:23
5 Untitled 2:09
6 Untitled 7:38
7 Untitled 3:27
8 Untitled 1:06
9 Le Vent Et La Gorge 17:41
10 Lied / Song 4:17
11 Go! 12:04
12 The Flying Dutchman 9:38
 
Лог создания рипа
Exact Audio Copy V1.0 beta 2 from 29. April 2011
EAC extraction logfile from 18. February 2013, 13:15
Frank Gratkowski Quartet / Le Vent et la Gorge
Used drive : Optiarc DVD RW AD-7170A Adapter: 0 ID: 0
Read mode : Secure
Utilize accurate stream : Yes
Defeat audio cache : Yes
Make use of C2 pointers : No
Read offset correction : 48
Overread into Lead-In and Lead-Out : No
Fill up missing offset samples with silence : Yes
Delete leading and trailing silent blocks : No
Null samples used in CRC calculations : Yes
Used interface : Native Win32 interface for Win NT & 2000
Used output format : User Defined Encoder
Selected bitrate : 320 kBit/s
Quality : High
Add ID3 tag : No
Command line compressor : C:\Program Files\Exact Audio Copy\Flac\flac.exe
Additional command line options : -V -8 -T "Date=%year%" -T "Genre=%genre%" %source%
TOC of the extracted CD
Track | Start | Length | Start sector | End sector
---------------------------------------------------------
1 | 0:00.00 | 2:57.04 | 0 | 13278
2 | 2:57.04 | 5:33.56 | 13279 | 38309
3 | 8:30.60 | 5:39.17 | 38310 | 63751
4 | 14:10.02 | 2:22.70 | 63752 | 74471
5 | 16:32.72 | 2:09.04 | 74472 | 84150
6 | 18:42.01 | 7:37.59 | 84151 | 118484
7 | 26:19.60 | 3:27.23 | 118485 | 134032
8 | 29:47.08 | 1:05.62 | 134033 | 138969
9 | 30:52.70 | 17:40.68 | 138970 | 218537
10 | 48:33.63 | 4:17.37 | 218538 | 237849
11 | 52:51.25 | 12:04.53 | 237850 | 292202
12 | 64:56.03 | 9:38.10 | 292203 | 335562
Range status and errors
Selected range
Filename K:\ЕАС\Frank Gratkowski Quartet - Le Vent et la Gorge.wav
Peak level 97.5 %
Extraction speed 2.2 X
Range quality 100.0 %
Test CRC A3F542C0
Copy CRC A3F542C0
Copy OK
No errors occurred
AccurateRip summary
Track 1 not present in database
Track 2 not present in database
Track 3 not present in database
Track 4 not present in database
Track 5 not present in database
Track 6 not present in database
Track 7 not present in database
Track 8 not present in database
Track 9 not present in database
Track 10 not present in database
Track 11 not present in database
Track 12 not present in database
None of the tracks are present in the AccurateRip database
End of status report
==== Log checksum E8EBD10C450D3283981A404FD212EF6EC314BEEDDCBBDD6463FF79A34BA22780 ====
 
Содержание индексной карты (.CUE)
REM GENRE Jazz
REM DATE 2012
REM DISCID BD117A0C
REM COMMENT "ExactAudioCopy v1.0b2"
PERFORMER "Frank Gratkowski Quartet"
TITLE "Le Vent et la Gorge"
FILE "Frank Gratkowski Quartet - Le Vent et la Gorge.flac" WAVE
TRACK 01 AUDIO
TITLE "Harm-oh-nie introduction"
PERFORMER "Frank Gratkowski Quartet"
ISRC 000000000000
INDEX 01 00:00:00
TRACK 02 AUDIO
TITLE "Harm-oh-nie bass tremmolo"
PERFORMER "Frank Gratkowski Quartet"
ISRC 000000000000
INDEX 01 02:57:04
TRACK 03 AUDIO
TITLE "Harm-oh-nie glissandi"
PERFORMER "Frank Gratkowski Quartet"
ISRC 000000000000
INDEX 01 08:30:60
TRACK 04 AUDIO
TITLE "Harm-oh-nie the theme"
PERFORMER "Frank Gratkowski Quartet"
ISRC 000000000000
INDEX 01 14:10:02
TRACK 05 AUDIO
TITLE "Harm-oh-nie trombone solo"
PERFORMER "Frank Gratkowski Quartet"
ISRC 000000000000
INDEX 01 16:32:72
TRACK 06 AUDIO
TITLE "Harm-oh-nie sound"
PERFORMER "Frank Gratkowski Quartet"
ISRC 000000000000
INDEX 01 18:42:01
TRACK 07 AUDIO
TITLE "Harm-oh-nie sax solo"
PERFORMER "Frank Gratkowski Quartet"
ISRC 000000000000
INDEX 01 26:19:60
TRACK 08 AUDIO
TITLE "Harm-oh-nie epilog"
PERFORMER "Frank Gratkowski Quartet"
ISRC 000000000000
INDEX 01 29:47:08
TRACK 09 AUDIO
TITLE "Le Vent et la Gorge"
PERFORMER "Frank Gratkowski Quartet"
ISRC 000000000000
INDEX 01 30:52:70
TRACK 10 AUDIO
TITLE "Lied \ Song"
PERFORMER "Frank Gratkowski Quartet"
ISRC 000000000000
INDEX 01 48:33:63
TRACK 11 AUDIO
TITLE "Go!"
PERFORMER "Frank Gratkowski Quartet"
ISRC 000000000000
INDEX 01 52:51:25
TRACK 12 AUDIO
TITLE "The Flying Dutchman"
PERFORMER "Frank Gratkowski Quartet"
ISRC 000000000000
INDEX 01 64:56:03
Доп. информация: Recorded at Loft Köln in October 2007 and February 2011
 
Состав
Alto Saxophone, Clarinet, Bass Clarinet, Contrabass Clarinet, Composed By – Frank Gratkowski
Double Bass – Dieter Manderscheid
Drums – Gerry Hemingway
Trombone – Wolter Wierbos
По всем вопросам пишите личное сообщение пользователю M0p94ok.
09:12
183
Нет комментариев. Ваш будет первым!