Вы используете незарегистрированную версию компонента "Вкладки"!

Поиск

(Free Jazz, Free Improvisation) Peter Brotzmann / Steve Noble - I Am Here Where Are You - 2013, FLAC (tracks+.cue), lossless

(Free Jazz, Free Improvisation) Peter Brotzmann / Steve Noble - I Am Here Where Are You - 2013, FLAC (tracks+.cue), lossless
Треклист:
Brötzmann - Noble / I Am Here Where Are You
Жанр: Free Jazz, Free Improvisation
Страна-производитель диска: Austria
Год издания: 2013
Издатель (лейбл): Trost Records
Номер по каталогу: TR 122
Аудиокодек: FLAC (*.flac)
Тип рипа: tracks+.cue
Битрейт аудио: lossless
Продолжительность: 53:34
Источник (релизер): whatcd, 6060842
Наличие сканов в содержимом раздачи: нет
Треклист:
1 I Am Here Where Are You
2 If Find Is Found
3 Mouth On Moth
4 No Basis
5 A Skin Falls Off
 
Лог создания рипа
X Lossless Decoder version 20130602 (143.2)
XLD extraction logfile from 2013-07-12 12:19:49 +0400
Peter Brötzmann, Steve Noble / I Am Here Where Are You
Used drive : HL-DT-ST DVDRW GX30N (revision RP09)
Media type : Pressed CD
Ripper mode : XLD Secure Ripper
Disable audio cache : OK for the drive with a cache less than 1375KiB
Make use of C2 pointers : NO
Read offset correction : 6
Max retry count : 100
Gap status : Analyzed, Appended (except HTOA)
TOC of the extracted CD
Track | Start | Length | Start sector | End sector
---------------------------------------------------------
1 | 00:00:00 | 14:41:00 | 0 | 66074
2 | 14:41:00 | 14:48:00 | 66075 | 132674
3 | 29:29:00 | 09:35:00 | 132675 | 175799
4 | 39:04:00 | 09:20:00 | 175800 | 217799
5 | 48:24:00 | 05:10:00 | 217800 | 241049
AccurateRip Summary
Disc not found in AccurateRip DB.
All Tracks
Album gain : -3.88 dB
Peak : 0.978394
Statistics
Read error : 0
Jitter error (maybe fixed) : 0
Retry sector count : 0
Damaged sector count : 0
Track 01
Filename : /Users/anch/Music/FLAC/Peter Brotzmann, Steve Noble - 2013 - I Am Here Where Are You [MP3 320]/01 - I Am Here Where Are You.mp3
/Users/anch/Music/FLAC/Peter Brotzmann, Steve Noble - 2013 - I Am Here Where Are You [MP3 V0]/01 - I Am Here Where Are You.mp3
/Users/anch/Music/FLAC/Peter Brotzmann, Steve Noble - 2013 - I Am Here Where Are You [FLAC]/01 - I Am Here Where Are You.flac
Pre-gap length : 00:02:00
Track gain : -4.46 dB
Peak : 0.978394
CRC32 hash (test run) : 8C971077
CRC32 hash : 8C971077
CRC32 hash (skip zero) : 9A4872CA
AccurateRip v1 signature : 05C7ED57
AccurateRip v2 signature : AB6D4000
->Track not present in AccurateRip database.
Statistics
Read error : 0
Jitter error (maybe fixed) : 0
Retry sector count : 0
Damaged sector count : 0
Track 02
Filename : /Users/anch/Music/FLAC/Peter Brotzmann, Steve Noble - 2013 - I Am Here Where Are You [MP3 320]/02 - If Find Is Found.mp3
/Users/anch/Music/FLAC/Peter Brotzmann, Steve Noble - 2013 - I Am Here Where Are You [MP3 V0]/02 - If Find Is Found.mp3
/Users/anch/Music/FLAC/Peter Brotzmann, Steve Noble - 2013 - I Am Here Where Are You [FLAC]/02 - If Find Is Found.flac
Track gain : -3.46 dB
Peak : 0.978149
CRC32 hash (test run) : 2A45BB87
CRC32 hash : 2A45BB87
CRC32 hash (skip zero) : 1ACC8AD9
AccurateRip v1 signature : 6022A9BF
AccurateRip v2 signature : 2BD68FCB
->Track not present in AccurateRip database.
Statistics
Read error : 0
Jitter error (maybe fixed) : 0
Retry sector count : 0
Damaged sector count : 0
Track 03
Filename : /Users/anch/Music/FLAC/Peter Brotzmann, Steve Noble - 2013 - I Am Here Where Are You [MP3 320]/03 - Mouth on Moth.mp3
/Users/anch/Music/FLAC/Peter Brotzmann, Steve Noble - 2013 - I Am Here Where Are You [MP3 V0]/03 - Mouth on Moth.mp3
/Users/anch/Music/FLAC/Peter Brotzmann, Steve Noble - 2013 - I Am Here Where Are You [FLAC]/03 - Mouth on Moth.flac
Track gain : -3.35 dB
Peak : 0.977875
CRC32 hash (test run) : 7EDAA83C
CRC32 hash : 7EDAA83C
CRC32 hash (skip zero) : 65602C5A
AccurateRip v1 signature : 4BCFC15F
AccurateRip v2 signature : 44DEFA7A
->Track not present in AccurateRip database.
Statistics
Read error : 0
Jitter error (maybe fixed) : 0
Retry sector count : 0
Damaged sector count : 0
Track 04
Filename : /Users/anch/Music/FLAC/Peter Brotzmann, Steve Noble - 2013 - I Am Here Where Are You [MP3 320]/04 - No Basis.mp3
/Users/anch/Music/FLAC/Peter Brotzmann, Steve Noble - 2013 - I Am Here Where Are You [MP3 V0]/04 - No Basis.mp3
/Users/anch/Music/FLAC/Peter Brotzmann, Steve Noble - 2013 - I Am Here Where Are You [FLAC]/04 - No Basis.flac
Track gain : -3.06 dB
Peak : 0.977814
CRC32 hash (test run) : 380BDAF6
CRC32 hash : 380BDAF6
CRC32 hash (skip zero) : 980DF16D
AccurateRip v1 signature : AAE895FC
AccurateRip v2 signature : 942F9F08
->Track not present in AccurateRip database.
Statistics
Read error : 0
Jitter error (maybe fixed) : 0
Retry sector count : 0
Damaged sector count : 0
Track 05
Filename : /Users/anch/Music/FLAC/Peter Brotzmann, Steve Noble - 2013 - I Am Here Where Are You [MP3 320]/05 - A Skin Falls Off.mp3
/Users/anch/Music/FLAC/Peter Brotzmann, Steve Noble - 2013 - I Am Here Where Are You [MP3 V0]/05 - A Skin Falls Off.mp3
/Users/anch/Music/FLAC/Peter Brotzmann, Steve Noble - 2013 - I Am Here Where Are You [FLAC]/05 - A Skin Falls Off.flac
Track gain : -3.90 dB
Peak : 0.977997
CRC32 hash (test run) : F9951A3F
CRC32 hash : F9951A3F
CRC32 hash (skip zero) : CCD65903
AccurateRip v1 signature : C33A16CA
AccurateRip v2 signature : D005E0E8
->Track not present in AccurateRip database.
Statistics
Read error : 0
Jitter error (maybe fixed) : 0
Retry sector count : 0
Damaged sector count : 0
No errors occurred
End of status report
 
Содержание индексной карты (.CUE)
TITLE "I Am Here Where Are You"
PERFORMER "Peter Brötzmann, Steve Noble"
REM GENRE "Free Jazz"
REM DATE "2013"
REM DISCID 450C8E05
REM REPLAYGAIN_ALBUM_GAIN -3.88 dB
REM REPLAYGAIN_ALBUM_PEAK 0.978394
FILE "01 - I Am Here Where Are You.flac" WAVE
TRACK 01 AUDIO
TITLE "I Am Here Where Are You"
PERFORMER "Peter Brötzmann, Steve Noble"
SONGWRITER "Peter Brötzmann, Steve Noble"
REM REPLAYGAIN_TRACK_GAIN -4.46 dB
REM REPLAYGAIN_TRACK_PEAK 0.978394
INDEX 01 00:00:00
FILE "02 - If Find Is Found.flac" WAVE
TRACK 02 AUDIO
TITLE "If Find Is Found"
PERFORMER "Peter Brötzmann, Steve Noble"
SONGWRITER "Peter Brötzmann, Steve Noble"
REM REPLAYGAIN_TRACK_GAIN -3.46 dB
REM REPLAYGAIN_TRACK_PEAK 0.978149
INDEX 01 00:00:00
FILE "03 - Mouth on Moth.flac" WAVE
TRACK 03 AUDIO
TITLE "Mouth on Moth"
PERFORMER "Peter Brötzmann, Steve Noble"
SONGWRITER "Peter Brötzmann, Steve Noble"
REM REPLAYGAIN_TRACK_GAIN -3.35 dB
REM REPLAYGAIN_TRACK_PEAK 0.977875
INDEX 01 00:00:00
FILE "04 - No Basis.flac" WAVE
TRACK 04 AUDIO
TITLE "No Basis"
PERFORMER "Peter Brötzmann, Steve Noble"
SONGWRITER "Peter Brötzmann, Steve Noble"
REM REPLAYGAIN_TRACK_GAIN -3.06 dB
REM REPLAYGAIN_TRACK_PEAK 0.977814
INDEX 01 00:00:00
FILE "05 - A Skin Falls Off.flac" WAVE
TRACK 05 AUDIO
TITLE "A Skin Falls Off"
PERFORMER "Peter Brötzmann, Steve Noble"
SONGWRITER "Peter Brötzmann, Steve Noble"
REM REPLAYGAIN_TRACK_GAIN -3.90 dB
REM REPLAYGAIN_TRACK_PEAK 0.977997
INDEX 01 00:00:00
Доп. информация: Recorded Live At Ateliers Claus, Brussels, January 19th 2013
 
Состав
Alto Saxophone, Tenor Saxophone, Clarinet, Tárogató – Peter Brötzmann
Drums – Steve Noble
Any questions -> support@pro-jazz.com. По всем вопросам пишите -> support@pro-jazz.com
18:18
216
Нет комментариев. Ваш будет первым!