Вы используете незарегистрированную версию компонента "Вкладки"!

Поиск

(Contemporary Jazz, Plainisphare) Jacques Siron (w/ Hans Kennel, Carlos Baumann, Petras Vysniauskas, Philippe Ehinger a. o.) - Les Passeurs d'instants - 1993, FLAC (tracks+.cue), lossless

(Contemporary Jazz, Plainisphare) Jacques Siron (w/ Hans Kennel, Carlos Baumann, Petras Vysniauskas, Philippe Ehinger a. o.) - Les Passeurs d'instants - 1993, FLAC (tracks+.cue), lossless
Треклист:
Jacques Siron / Les Passeurs d'instants
Жанр: Contemporary Jazz, Plainisphare
Страна-производитель диска: Switzerland
Год издания: 1993
Издатель (лейбл): Plainisphare
Номер по каталогу: PL 1267-81 CD
Аудиокодек: FLAC (*.flac)
Тип рипа: tracks+.cue
Битрейт аудио: lossless
Продолжительность: 50:48
Источник (релизер): Max Monteiro
Наличие сканов в содержимом раздачи: нет
Треклист:
1. Rêves de gangsters 6:38
2. Samedi soir sous les palmiers 7:24
3. B.N. et les sept nains 7:27
4. Bande, contrebande, bande 7:36
5. La Vase des passeurs d’instants 5:49
6. Chant 4:30
7. Les Faussaires d’horoscope 6:13
8. Poursuite 5:10
All compositions by Jacques Siron.
Live recording at the AMR Jazz Festival Genève, Salle de l’Alhambra, April 2, 1992.
Christine Python – Vocal
Hans Kennel – Trumpet
Carlos Baumann – Trumpet
Petras Vysniauskas – Soprano Sax
Philippe Ehinger – Clarinets
Christoph Baumann – Piano
Jacques Siron – Double Bass
Dieter Ulrich – Drums
 
Лог создания рипа
Exact Audio Copy V1.0 beta 3 from 29. August 2011
EAC extraction logfile from 21. September 2013, 13:46
Jacques Siron / Les Passeurs d'instants
Used drive : hp BD E DS6E2LH Adapter: 0 ID: 1
Read mode : Secure
Utilize accurate stream : Yes
Defeat audio cache : Yes
Make use of C2 pointers : No
Read offset correction : 6
Overread into Lead-In and Lead-Out : No
Fill up missing offset samples with silence : Yes
Delete leading and trailing silent blocks : No
Null samples used in CRC calculations : Yes
Used interface : Native Win32 interface for Win NT & 2000
Gap handling : Appended to previous track
Used output format : User Defined Encoder
Selected bitrate : 768 kBit/s
Quality : High
Add ID3 tag : No
Command line compressor : C:\Program Files (x86)\Exact Audio Copy\Flac\flac.exe
Additional command line options : -8 -V -T "ARTIST=%artist%" -T "TITLE=%title%" -T "ALBUM=%albumtitle%" -T "DATE=%year%" -T "TRACKNUMBER=%tracknr%" -T "GENRE=%genre%" -T "PERFORMER=%albuminterpret%" -T "COMPOSER=%composer%" %haslyrics%--tag-from-file=LYRICS="%lyricsfile%"%haslyrics% -T "ALBUMARTIST=%albumartist%" -T "DISCNUMBER=%cdnumber%" -T "TOTALDISCS=%totalcds%" -T "TOTALTRACKS=%numtracks%" -T "COMMENT=%comment%" %source% -o %dest%
TOC of the extracted CD
Track | Start | Length | Start sector | End sector
---------------------------------------------------------
1 | 0:00.00 | 6:38.15 | 0 | 29864
2 | 6:38.15 | 7:24.00 | 29865 | 63164
3 | 14:02.15 | 7:27.35 | 63165 | 96724
4 | 21:29.50 | 7:35.48 | 96725 | 130897
5 | 29:05.23 | 5:49.02 | 130898 | 157074
6 | 34:54.25 | 4:29.40 | 157075 | 177289
7 | 39:23.65 | 6:13.28 | 177290 | 205292
8 | 45:37.18 | 5:10.37 | 205293 | 228579
Track 1
Filename C:\EAC rips\01 - Rêves de gangsters.wav
Pre-gap length 0:00:02.00
Peak level 68.6 %
Extraction speed 2.8 X
Track quality 100.0 %
Test CRC 3C656AD3
Copy CRC 3C656AD3
Track not present in AccurateRip database
Copy OK
Track 2
Filename C:\EAC rips\02 - Samedi soir sous les palmiers.wav
Peak level 88.1 %
Extraction speed 3.3 X
Track quality 100.0 %
Test CRC 37F860C2
Copy CRC 37F860C2
Track not present in AccurateRip database
Copy OK
Track 3
Filename C:\EAC rips\03 - B.N. et les sept nains.wav
Peak level 90.1 %
Extraction speed 3.8 X
Track quality 100.0 %
Test CRC BC0B12E3
Copy CRC BC0B12E3
Track not present in AccurateRip database
Copy OK
Track 4
Filename C:\EAC rips\04 - Bande, contrebande, bande.wav
Peak level 90.2 %
Extraction speed 4.2 X
Track quality 100.0 %
Test CRC 3364926B
Copy CRC 3364926B
Track not present in AccurateRip database
Copy OK
Track 5
Filename C:\EAC rips\05 - La Valse des passeurs d'instants.wav
Peak level 90.2 %
Extraction speed 4.4 X
Track quality 100.0 %
Test CRC 149AC018
Copy CRC 149AC018
Track not present in AccurateRip database
Copy OK
Track 6
Filename C:\EAC rips\06 - Chant.wav
Peak level 83.3 %
Extraction speed 4.5 X
Track quality 100.0 %
Test CRC 07D72F85
Copy CRC 07D72F85
Track not present in AccurateRip database
Copy OK
Track 7
Filename C:\EAC rips\07 - Les Faussaires d'horoscope.wav
Peak level 68.1 %
Extraction speed 4.7 X
Track quality 100.0 %
Test CRC 23F63014
Copy CRC 23F63014
Track not present in AccurateRip database
Copy OK
Track 8
Filename C:\EAC rips\08 - Poursuite.wav
Peak level 79.5 %
Extraction speed 4.9 X
Track quality 100.0 %
Test CRC 51EBC932
Copy CRC 51EBC932
Track not present in AccurateRip database
Copy OK
None of the tracks are present in the AccurateRip database
No errors occurred
End of status report
---- CUETools DB Plugin V2.1.4
[CTDB TOCID: T.HVbaal4aHF1iV3wiruNs36RU4-] found
Submit result: T.HVbaal4aHF1iV3wiruNs36RU4- has been confirmed
Track | CTDB Status
1 | (1/1) Accurately ripped
2 | (1/1) Accurately ripped
3 | (1/1) Accurately ripped
4 | (1/1) Accurately ripped
5 | (1/1) Accurately ripped
6 | (1/1) Accurately ripped
7 | (1/1) Accurately ripped
8 | (1/1) Accurately ripped
==== Log checksum AD3724E94448CC3ADFDF2E44EB4AFD80ADDAEA96C35F11682EE49A44008BB033 ====
 
Содержание индексной карты (.CUE)
REM GENRE Jazz
REM DATE 1993
REM DISCID 6C0BE708
REM COMMENT "ExactAudioCopy v1.0b3"
PERFORMER "Jacques Siron"
TITLE "Les Passeurs d'instants"
FILE "01 - Rêves de gangsters.wav" WAVE
TRACK 01 AUDIO
TITLE "Rêves de gangsters"
PERFORMER "Jacques Siron"
INDEX 01 00:00:00
FILE "02 - Samedi soir sous les palmiers.wav" WAVE
TRACK 02 AUDIO
TITLE "Samedi soir sous les palmiers"
PERFORMER "Jacques Siron"
INDEX 01 00:00:00
FILE "03 - B.N. et les sept nains.wav" WAVE
TRACK 03 AUDIO
TITLE "B.N. et les sept nains"
PERFORMER "Jacques Siron"
INDEX 01 00:00:00
FILE "04 - Bande, contrebande, bande.wav" WAVE
TRACK 04 AUDIO
TITLE "Bande, contrebande, bande"
PERFORMER "Jacques Siron"
INDEX 01 00:00:00
FILE "05 - La Valse des passeurs d'instants.wav" WAVE
TRACK 05 AUDIO
TITLE "La Valse des passeurs d'instants"
PERFORMER "Jacques Siron"
INDEX 01 00:00:00
FILE "06 - Chant.wav" WAVE
TRACK 06 AUDIO
TITLE "Chant"
PERFORMER "Jacques Siron"
INDEX 01 00:00:00
FILE "07 - Les Faussaires d'horoscope.wav" WAVE
TRACK 07 AUDIO
TITLE "Les Faussaires d'horoscope"
PERFORMER "Jacques Siron"
INDEX 01 00:00:00
FILE "08 - Poursuite.wav" WAVE
TRACK 08 AUDIO
TITLE "Poursuite"
PERFORMER "Jacques Siron"
INDEX 01 00:00:00
По всем вопросам пишите личное сообщение пользователю M0p94ok.
18:17
195
Нет комментариев. Ваш будет первым!