Вы используете незарегистрированную версию компонента "Вкладки"!

Поиск

(Free Jazz, Bee Jazz Records) Daniel Humair (w/ Manu Codjia, Sebastien Boisseau, Matthieu Donarier, Christophe Monniot) - Bonus Baby Boom - 2008, FLAC (tracks+.cue), lossless

(Free Jazz, Bee Jazz Records) Daniel Humair (w/ Manu Codjia, Sebastien Boisseau, Matthieu Donarier, Christophe Monniot) - Bonus Baby Boom - 2008, FLAC (tracks+.cue), lossless
Треклист:
Daniel Humair / Bonus Baby Boom
Жанр: Free Jazz, Bee Jazz Records
Страна-производитель диска: France
Год издания: 2008
Издатель (лейбл): Bee Jazz Records
Номер по каталогу: BEE 027
Аудиокодек: FLAC (*.flac)
Тип рипа: tracks+.cue
Битрейт аудио: lossless
Продолжительность: 39:15
Источник (релизер): Max Monteiro
Наличие сканов в содержимом раздачи: нет
Треклист:
1. Direction Technopole (Christophe Monniot) 6:22
2. Bergen (Sébastien Boisseau) 3:32
3. Aus de Banana (Daniel Humair & Jean-Philippe Muvien) 4:55
4. Good Mood (part 1) (Joachim Kühn) 1:54
5. Pinocchio Kicked in the Leg by Jim Dine (Baby Boom) 2:45
6. Mood Indigo (Duke Ellington) 3:58
7. Vlada (Daniel Humair & Jean-Philippe Muvien) 9:30
8. Butterfly Me (Butterfly You) (Matthieu Donarier) 3:03
9. Good Mood (part 2) (Joachim Kühn) 3:17
Recorded at Studio Tex Avril on May 2008.
Daniel Humair – Percussions
Manu Codjia – Guitar
Sébastien Boisseau – Double Bass
Matthieu Donarier – Tenor & Soprano Saxophones
Christophe Monniot – Alto, Baritone, Sopranino Saxophones & K Station Keyboard
 
Лог создания рипа
Exact Audio Copy V1.0 beta 3 from 29. August 2011
EAC extraction logfile from 10. September 2013, 19:26
Daniel Humair / Bonus Baby Boom
Used drive : SlimtypeeNAU508 5 Adapter: 1 ID: 0
Read mode : Secure
Utilize accurate stream : Yes
Defeat audio cache : Yes
Make use of C2 pointers : No
Read offset correction : 6
Overread into Lead-In and Lead-Out : No
Fill up missing offset samples with silence : Yes
Delete leading and trailing silent blocks : No
Null samples used in CRC calculations : Yes
Used interface : Native Win32 interface for Win NT & 2000
Gap handling : Appended to previous track
Used output format : User Defined Encoder
Selected bitrate : 768 kBit/s
Quality : High
Add ID3 tag : No
Command line compressor : C:\Program Files (x86)\Exact Audio Copy\Flac\flac.exe
Additional command line options : -8 -V -T "ARTIST=%artist%" -T "TITLE=%title%" -T "ALBUM=%albumtitle%" -T "DATE=%year%" -T "TRACKNUMBER=%tracknr%" -T "GENRE=%genre%" -T "PERFORMER=%albuminterpret%" -T "COMPOSER=%composer%" %haslyrics%--tag-from-file=LYRICS="%lyricsfile%"%haslyrics% -T "ALBUMARTIST=%albumartist%" -T "DISCNUMBER=%cdnumber%" -T "TOTALDISCS=%totalcds%" -T "TOTALTRACKS=%numtracks%" -T "COMMENT=%comment%" %source% -o %dest%
TOC of the extracted CD
Track | Start | Length | Start sector | End sector
---------------------------------------------------------
1 | 0:00.00 | 6:21.45 | 0 | 28619
2 | 6:21.45 | 3:31.57 | 28620 | 44501
3 | 9:53.27 | 4:55.13 | 44502 | 66639
4 | 14:48.40 | 1:54.29 | 66640 | 75218
5 | 16:42.69 | 2:44.53 | 75219 | 87571
6 | 19:27.47 | 3:58.04 | 87572 | 105425
7 | 23:25.51 | 9:29.46 | 105426 | 148146
8 | 32:55.22 | 3:02.56 | 148147 | 161852
9 | 35:58.03 | 3:17.07 | 161853 | 176634
Track 1
Filename C:\EAC rips\01 - Direction Technopole.wav
Pre-gap length 0:00:02.00
Peak level 100.0 %
Extraction speed 2.3 X
Track quality 100.0 %
Test CRC 5476CB30
Copy CRC 5476CB30
Accurately ripped (confidence 6) [B4E9CD0E] (AR v1)
Copy OK
Track 2
Filename C:\EAC rips\02 - Bergen.wav
Pre-gap length 0:00:03.30
Peak level 100.0 %
Extraction speed 2.4 X
Track quality 100.0 %
Test CRC 76452EE5
Copy CRC 76452EE5
Accurately ripped (confidence 6) [260EED49] (AR v1)
Copy OK
Track 3
Filename C:\EAC rips\03 - Aus de Banana.wav
Pre-gap length 0:00:01.30
Peak level 100.0 %
Extraction speed 2.7 X
Track quality 100.0 %
Test CRC 8651FBA9
Copy CRC 8651FBA9
Accurately ripped (confidence 6) [4174C4C1] (AR v1)
Copy OK
Track 4
Filename C:\EAC rips\04 - Good Mood (part 1).wav
Pre-gap length 0:00:02.34
Peak level 100.0 %
Extraction speed 2.4 X
Track quality 100.0 %
Test CRC 6275FAD9
Copy CRC 6275FAD9
Accurately ripped (confidence 6) [17B99B2E] (AR v1)
Copy OK
Track 5
Filename C:\EAC rips\05 - Pinocchio Kicked in the Leg by Jim Dine.wav
Pre-gap length 0:00:01.70
Peak level 100.0 %
Extraction speed 2.7 X
Track quality 100.0 %
Test CRC 599540FF
Copy CRC 599540FF
Accurately ripped (confidence 6) [CB046050] (AR v1)
Copy OK
Track 6
Filename C:\EAC rips\06 - Mood Indigo.wav
Pre-gap length 0:00:01.40
Peak level 100.0 %
Extraction speed 2.5 X
Track quality 99.9 %
Test CRC 45ABE286
Copy CRC 45ABE286
Accurately ripped (confidence 6) [0E885B9C] (AR v1)
Copy OK
Track 7
Filename C:\EAC rips\07 - Vlada V.wav
Pre-gap length 0:00:03.52
Peak level 100.0 %
Extraction speed 3.6 X
Track quality 100.0 %
Test CRC E58ED745
Copy CRC E58ED745
Accurately ripped (confidence 6) [C01F04E8] (AR v1)
Copy OK
Track 8
Filename C:\EAC rips\08 - Butterfly Me (Butterfly You).wav
Pre-gap length 0:00:03.36
Peak level 100.0 %
Extraction speed 3.4 X
Track quality 100.0 %
Test CRC 7D176514
Copy CRC 7D176514
Accurately ripped (confidence 6) [C7B16F62] (AR v1)
Copy OK
Track 9
Filename C:\EAC rips\09 - Good Mood (part 2).wav
Pre-gap length 0:00:02.49
Peak level 100.0 %
Extraction speed 3.6 X
Track quality 100.0 %
Test CRC 0A4FDA57
Copy CRC 0A4FDA57
Accurately ripped (confidence 6) [71634E85] (AR v1)
Copy OK
All tracks accurately ripped
No errors occurred
End of status report
---- CUETools DB Plugin V2.1.4
[CTDB TOCID: HEYlTqiuFK_GYDTqy6vDvPHBMN0-] disk not present in database
Submit result: La demande a été abandonnée : La demande a été annulée.
==== Log checksum 5252D168D9B89FEB83A728F25208499F999A28C22929DB32DE809EA01FC60951 ====
 
Содержание индексной карты (.CUE)
REM GENRE Jazz
REM DATE 2008
REM DISCID 77093309
REM COMMENT "ExactAudioCopy v1.0b3"
PERFORMER "Daniel Humair"
TITLE "Bonus Baby Boom"
FILE "01 - Direction Technopole.wav" WAVE
TRACK 01 AUDIO
TITLE "Direction Technopole"
PERFORMER "Daniel Humair"
ISRC FR66V0800172
INDEX 01 00:00:00
TRACK 02 AUDIO
TITLE "Bergen"
PERFORMER "Daniel Humair"
ISRC FR66V0800173
INDEX 00 06:18:15
FILE "02 - Bergen.wav" WAVE
INDEX 01 00:00:00
TRACK 03 AUDIO
TITLE "Aus de Banana"
PERFORMER "Daniel Humair"
ISRC FR66V0800174
INDEX 00 03:30:27
FILE "03 - Aus de Banana.wav" WAVE
INDEX 01 00:00:00
TRACK 04 AUDIO
TITLE "Good Mood (part 1)"
PERFORMER "Daniel Humair"
ISRC FR66V0800175
INDEX 00 04:52:54
FILE "04 - Good Mood (part 1).wav" WAVE
INDEX 01 00:00:00
TRACK 05 AUDIO
TITLE "Pinocchio Kicked in the Leg by Jim Dine"
PERFORMER "Daniel Humair"
ISRC FR66V0800176
INDEX 00 01:52:34
FILE "05 - Pinocchio Kicked in the Leg by Jim Dine.wav" WAVE
INDEX 01 00:00:00
TRACK 06 AUDIO
TITLE "Mood Indigo"
PERFORMER "Daniel Humair"
ISRC FR66V0800177
INDEX 00 02:43:13
FILE "06 - Mood Indigo.wav" WAVE
INDEX 01 00:00:00
TRACK 07 AUDIO
TITLE "Vlada V"
PERFORMER "Daniel Humair"
ISRC FR66V0800178
INDEX 00 03:54:27
FILE "07 - Vlada V.wav" WAVE
INDEX 01 00:00:00
TRACK 08 AUDIO
TITLE "Butterfly Me (Butterfly You)"
PERFORMER "Daniel Humair"
ISRC FR66V0800179
INDEX 00 09:26:10
FILE "08 - Butterfly Me (Butterfly You).wav" WAVE
INDEX 01 00:00:00
TRACK 09 AUDIO
TITLE "Good Mood (part 2)"
PERFORMER "Daniel Humair"
ISRC FR66V0800180
INDEX 00 03:00:07
FILE "09 - Good Mood (part 2).wav" WAVE
INDEX 01 00:00:00
Any questions -> support@pro-jazz.com. По всем вопросам пишите -> support@pro-jazz.com
18:18
187
Нет комментариев. Ваш будет первым!