Вы используете незарегистрированную версию компонента "Вкладки"!

Поиск

(Contemporary Jazz, Vocal, ACT Music) Jens Thomas - Speed of Grace (A tribute to AC/DC) - 2012, FLAC (tracks+.cue), lossless

(Contemporary Jazz, Vocal, ACT Music) Jens Thomas - Speed of Grace (A tribute to AC/DC) - 2012, FLAC (tracks+.cue), lossless
Издатель (лейбл):
Треклист:
Jens Thomas / Speed of Grace (A tribute to AC/DC)
Жанр: Contemporary Jazz, Vocal, ACT Music
Страна-производитель диска: Germany
Год издания: 2012
Издатель (лейбл): ACT Music
Номер по каталогу: ACT 9509-2
Аудиокодек: FLAC (*.flac)
Тип рипа: tracks+.cue
Битрейт аудио: lossless
Продолжительность: 52:57
Источник (релизер): Max Monteiro
Наличие сканов в содержимом раздачи: нет
Треклист:
01. Highway to Hell 5:51
02. Live Wire 5:14
03. T.N.T. 4:21
04. It’s a Long Way to the Top 3:57
05. The Jack 5:18
06. Night Prowler 4:02
07. Hells Bells (B. Johnson / A. & M. Young) 2:53
08. Connected (Jens Thomas) 4:00
09. If You Want Blood 5:34
10. Rock ‘n’ Roll Singer 2:07
11. Keep It Down Boy (Jens Thomas) 4:44
12. Touch Too Much 2:58
13. You Shook Me All Night Long (B. Johnson / A. & M. Young) 1:57
Music composed by Bon Scott, Angus and Malcolm Young, unless otherwise noted.
Recorded at Hansa Tonstudios Berlin, February 28 & March 1, 2011.
Jens Thomas – Vocals, Piano, Rhodes, Wurlitzer, Harmonium, Shaman Drum
Verneri Pohjola – Trumpet
 
Лог создания рипа
Exact Audio Copy V1.0 beta 3 from 29. August 2011
EAC extraction logfile from 17. September 2013, 19:46
Jens Thomas / Speed of Grace
Used drive : SlimtypeeNAU508 5 Adapter: 1 ID: 0
Read mode : Secure
Utilize accurate stream : Yes
Defeat audio cache : Yes
Make use of C2 pointers : No
Read offset correction : 6
Overread into Lead-In and Lead-Out : No
Fill up missing offset samples with silence : Yes
Delete leading and trailing silent blocks : No
Null samples used in CRC calculations : Yes
Used interface : Native Win32 interface for Win NT & 2000
Gap handling : Appended to previous track
Used output format : User Defined Encoder
Selected bitrate : 768 kBit/s
Quality : High
Add ID3 tag : No
Command line compressor : C:\Program Files (x86)\Exact Audio Copy\Flac\flac.exe
Additional command line options : -8 -V -T "ARTIST=%artist%" -T "TITLE=%title%" -T "ALBUM=%albumtitle%" -T "DATE=%year%" -T "TRACKNUMBER=%tracknr%" -T "GENRE=%genre%" -T "PERFORMER=%albuminterpret%" -T "COMPOSER=%composer%" %haslyrics%--tag-from-file=LYRICS="%lyricsfile%"%haslyrics% -T "ALBUMARTIST=%albumartist%" -T "DISCNUMBER=%cdnumber%" -T "TOTALDISCS=%totalcds%" -T "TOTALTRACKS=%numtracks%" -T "COMMENT=%comment%" %source% -o %dest%
TOC of the extracted CD
Track | Start | Length | Start sector | End sector
---------------------------------------------------------
1 | 0:00.00 | 5:50.64 | 0 | 26313
2 | 5:50.64 | 5:14.25 | 26314 | 49888
3 | 11:05.14 | 4:20.54 | 49889 | 69442
4 | 15:25.68 | 3:57.09 | 69443 | 87226
5 | 19:23.02 | 5:18.02 | 87227 | 111078
6 | 24:41.04 | 4:02.01 | 111079 | 129229
7 | 28:43.05 | 2:53.12 | 129230 | 142216
8 | 31:36.17 | 4:00.10 | 142217 | 160226
9 | 35:36.27 | 5:34.33 | 160227 | 185309
10 | 41:10.60 | 2:06.69 | 185310 | 194828
11 | 43:17.54 | 4:44.19 | 194829 | 216147
12 | 48:01.73 | 2:57.50 | 216148 | 229472
13 | 50:59.48 | 1:57.01 | 229473 | 238248
Track 1
Filename C:\EAC rips\01 - Highway to Hell.wav
Pre-gap length 0:00:02.00
Peak level 98.8 %
Extraction speed 1.2 X
Track quality 100.0 %
Test CRC 585EC884
Copy CRC 585EC884
Accurately ripped (confidence 11) [541B09EB] (AR v2)
Copy OK
Track 2
Filename C:\EAC rips\02 - Live Wire.wav
Pre-gap length 0:00:02.00
Peak level 87.1 %
Extraction speed 1.3 X
Track quality 100.0 %
Test CRC 28B00478
Copy CRC 28B00478
Accurately ripped (confidence 11) [82D2A14A] (AR v2)
Copy OK
Track 3
Filename C:\EAC rips\03 - T.N.T..wav
Pre-gap length 0:00:01.74
Peak level 98.8 %
Extraction speed 1.4 X
Track quality 100.0 %
Test CRC 649A9178
Copy CRC 649A9178
Accurately ripped (confidence 11) [1B518529] (AR v2)
Copy OK
Track 4
Filename C:\EAC rips\04 - It's a Long Way to the Top.wav
Pre-gap length 0:00:01.23
Peak level 98.8 %
Extraction speed 1.5 X
Track quality 100.0 %
Test CRC B33BC7E6
Copy CRC B33BC7E6
Accurately ripped (confidence 11) [4FC0FA49] (AR v2)
Copy OK
Track 5
Filename C:\EAC rips\05 - The Jack.wav
Pre-gap length 0:00:01.68
Peak level 98.8 %
Extraction speed 1.5 X
Track quality 99.9 %
Test CRC 76634BDF
Copy CRC 76634BDF
Accurately ripped (confidence 11) [C1F960FF] (AR v2)
Copy OK
Track 6
Filename C:\EAC rips\06 - Night Prowler.wav
Pre-gap length 0:00:00.14
Peak level 96.6 %
Extraction speed 1.5 X
Track quality 99.9 %
Test CRC B00F91E7
Copy CRC B00F91E7
Accurately ripped (confidence 11) [E4BBA106] (AR v2)
Copy OK
Track 7
Filename C:\EAC rips\07 - Hells Bells.wav
Pre-gap length 0:00:01.63
Peak level 98.8 %
Extraction speed 1.7 X
Track quality 100.0 %
Test CRC 1E2E5487
Copy CRC 1E2E5487
Accurately ripped (confidence 11) [0EDEB660] (AR v2)
Copy OK
Track 8
Filename C:\EAC rips\08 - Connected.wav
Pre-gap length 0:00:02.09
Peak level 84.6 %
Extraction speed 1.8 X
Track quality 100.0 %
Test CRC 28CB35A8
Copy CRC 28CB35A8
Accurately ripped (confidence 11) [87DDD452] (AR v2)
Copy OK
Track 9
Filename C:\EAC rips\09 - If You Want Blood.wav
Pre-gap length 0:00:01.68
Peak level 88.1 %
Extraction speed 2.0 X
Track quality 100.0 %
Test CRC 17063D1E
Copy CRC 17063D1E
Accurately ripped (confidence 11) [2345CD6F] (AR v2)
Copy OK
Track 10
Filename C:\EAC rips\10 - Rock 'n' Roll Singer.wav
Pre-gap length 0:00:03.10
Peak level 72.4 %
Extraction speed 1.7 X
Track quality 100.0 %
Test CRC CF3EA3BC
Copy CRC CF3EA3BC
Accurately ripped (confidence 11) [D6119E63] (AR v2)
Copy OK
Track 11
Filename C:\EAC rips\11 - Keep It Down Boy.wav
Pre-gap length 0:00:01.74
Peak level 89.5 %
Extraction speed 2.1 X
Track quality 100.0 %
Test CRC F39AF6B4
Copy CRC F39AF6B4
Accurately ripped (confidence 11) [B62F1FCA] (AR v2)
Copy OK
Track 12
Filename C:\EAC rips\12 - Touch Too Much.wav
Pre-gap length 0:00:03.74
Peak level 98.8 %
Extraction speed 2.0 X
Track quality 100.0 %
Test CRC FBBC5B72
Copy CRC FBBC5B72
Accurately ripped (confidence 11) [88AD569B] (AR v2)
Copy OK
Track 13
Filename C:\EAC rips\13 - You Shook Me All Night Long.wav
Pre-gap length 0:00:03.69
Peak level 98.8 %
Extraction speed 1.8 X
Track quality 100.0 %
Test CRC B74913FD
Copy CRC B74913FD
Accurately ripped (confidence 11) [9C126B71] (AR v2)
Copy OK
All tracks accurately ripped
No errors occurred
End of status report
---- CUETools DB Plugin V2.1.4
[CTDB TOCID: j3XhEP1MTS3mJTfRBOE5uaouH4c-] found
Submit result: La demande a été abandonnée : La demande a été annulée.
Track | CTDB Status
1 | (4/5) Accurately ripped
2 | (4/5) Accurately ripped
3 | (4/5) Accurately ripped
4 | (4/5) Accurately ripped
5 | (4/5) Accurately ripped
6 | (4/5) Accurately ripped
7 | (4/5) Accurately ripped
8 | (4/5) Accurately ripped
9 | (4/5) Accurately ripped
10 | (4/5) Accurately ripped
11 | (4/5) Accurately ripped
12 | (4/5) Accurately ripped
13 | (5/5) Accurately ripped
==== Log checksum C26BBEE0B91306EBBD55F34D5F3D94530071A9111553EEC18D52CEFD1807E9EE ====
 
Содержание индексной карты (.CUE)
REM GENRE Jazz
REM DATE 2012
REM DISCID CC0C680D
REM COMMENT "ExactAudioCopy v1.0b3"
PERFORMER "Jens Thomas"
TITLE "Speed of Grace (A tribute to AC/DC)"
FILE "01 - Highway to Hell.wav" WAVE
TRACK 01 AUDIO
TITLE "Highway to Hell"
PERFORMER "Jens Thomas"
ISRC DEA891101150
INDEX 01 00:00:00
TRACK 02 AUDIO
TITLE "Live Wire"
PERFORMER "Jens Thomas"
ISRC DEA891101151
INDEX 00 05:48:64
FILE "02 - Live Wire.wav" WAVE
INDEX 01 00:00:00
TRACK 03 AUDIO
TITLE "T.N.T."
PERFORMER "Jens Thomas"
ISRC DEA891101152
INDEX 00 05:12:26
FILE "03 - T.N.T..wav" WAVE
INDEX 01 00:00:00
TRACK 04 AUDIO
TITLE "It's a Long Way to the Top"
PERFORMER "Jens Thomas"
ISRC DEA891101153
INDEX 00 04:19:31
FILE "04 - It's a Long Way to the Top.wav" WAVE
INDEX 01 00:00:00
TRACK 05 AUDIO
TITLE "The Jack"
PERFORMER "Jens Thomas"
ISRC DEA891101154
INDEX 00 03:55:16
FILE "05 - The Jack.wav" WAVE
INDEX 01 00:00:00
TRACK 06 AUDIO
TITLE "Night Prowler"
PERFORMER "Jens Thomas"
ISRC DEA891101155
INDEX 00 05:17:63
FILE "06 - Night Prowler.wav" WAVE
INDEX 01 00:00:00
TRACK 07 AUDIO
TITLE "Hells Bells"
PERFORMER "Jens Thomas"
ISRC DEA891101156
INDEX 00 04:00:13
FILE "07 - Hells Bells.wav" WAVE
INDEX 01 00:00:00
TRACK 08 AUDIO
TITLE "Connected"
PERFORMER "Jens Thomas"
ISRC DEA891101157
INDEX 00 02:51:03
FILE "08 - Connected.wav" WAVE
INDEX 01 00:00:00
TRACK 09 AUDIO
TITLE "If You Want Blood"
PERFORMER "Jens Thomas"
ISRC DEA891101158
INDEX 00 03:58:17
FILE "09 - If You Want Blood.wav" WAVE
INDEX 01 00:00:00
TRACK 10 AUDIO
TITLE "Rock 'n' Roll Singer"
PERFORMER "Jens Thomas"
ISRC DEA891101159
INDEX 00 05:31:23
FILE "10 - Rock 'n' Roll Singer.wav" WAVE
INDEX 01 00:00:00
TRACK 11 AUDIO
TITLE "Keep It Down Boy"
PERFORMER "Jens Thomas"
ISRC DEA891101160
INDEX 00 02:04:70
FILE "11 - Keep It Down Boy.wav" WAVE
INDEX 01 00:00:00
TRACK 12 AUDIO
TITLE "Touch Too Much"
PERFORMER "Jens Thomas"
ISRC DEA891101161
INDEX 00 04:40:20
FILE "12 - Touch Too Much.wav" WAVE
INDEX 01 00:00:00
TRACK 13 AUDIO
TITLE "You Shook Me All Night Long"
PERFORMER "Jens Thomas"
ISRC DEA891101162
INDEX 00 02:53:56
FILE "13 - You Shook Me All Night Long.wav" WAVE
INDEX 01 00:00:00
Доп. информация: The WEB version is here.
По всем вопросам пишите личное сообщение пользователю M0p94ok.
18:19
239
Нет комментариев. Ваш будет первым!