Вы используете незарегистрированную версию компонента "Вкладки"!

Поиск

(Contemporary Jazz, Altri Suoni) Direzione Sud (Maurice Magnoni, Luca Pagano, Renaud Millet-Lacombe, Tobie Langel) - Estrella del Norte - 2004, FLAC (tracks+.cue), lossless

(Contemporary Jazz, Altri Suoni) Direzione Sud (Maurice Magnoni, Luca Pagano, Renaud Millet-Lacombe, Tobie Langel) - Estrella del Norte - 2004, FLAC (tracks+.cue), lossless
Треклист:
Direzione Sud / Estrella del Norte
Жанр: Contemporary Jazz, Altri Suoni
Страна-производитель диска: Switzerland
Год издания: 2004
Издатель (лейбл): Altri Suoni
Номер по каталогу: AS 164
Аудиокодек: FLAC (*.flac)
Тип рипа: tracks+.cue
Битрейт аудио: lossless
Продолжительность: 54:04
Источник (релизер): Max Monteiro
Наличие сканов в содержимом раздачи: нет
Треклист:
1. Roba mia (Luca Pagano) 5:17
2. Fleurs du vent (Maurice Magnoni) 5:49
3. Estrella del Norte (Maurice Magnoni) 6:07
4. Old Time Blues (D’Andrea) 9:01
5. Elisi (Maurice Magnoni) 5:29
6. Oxford Call (Maurice Magnoni) 7:19
7. Calippo (Luca Pagano) 4:21
8. Le Messager (Maurice Magnoni) 10:40
Recorded in January 2004 at AMR, Geneva.
Maurice Magnoni – Tenor & Soprano Saxophones
Luca Pagano – Guitar
Renaud Millet-Lacombe – Hammond B3 Organ
Tobie Langel – Drums
 
Лог создания рипа
Exact Audio Copy V1.0 beta 3 from 29. August 2011
EAC extraction logfile from 17. September 2013, 21:29
Direzione Sud / Estrella del Norte
Used drive : SlimtypeeNAU508 5 Adapter: 1 ID: 0
Read mode : Secure
Utilize accurate stream : Yes
Defeat audio cache : Yes
Make use of C2 pointers : No
Read offset correction : 6
Overread into Lead-In and Lead-Out : No
Fill up missing offset samples with silence : Yes
Delete leading and trailing silent blocks : No
Null samples used in CRC calculations : Yes
Used interface : Native Win32 interface for Win NT & 2000
Gap handling : Appended to previous track
Used output format : User Defined Encoder
Selected bitrate : 768 kBit/s
Quality : High
Add ID3 tag : No
Command line compressor : C:\Program Files (x86)\Exact Audio Copy\Flac\flac.exe
Additional command line options : -8 -V -T "ARTIST=%artist%" -T "TITLE=%title%" -T "ALBUM=%albumtitle%" -T "DATE=%year%" -T "TRACKNUMBER=%tracknr%" -T "GENRE=%genre%" -T "PERFORMER=%albuminterpret%" -T "COMPOSER=%composer%" %haslyrics%--tag-from-file=LYRICS="%lyricsfile%"%haslyrics% -T "ALBUMARTIST=%albumartist%" -T "DISCNUMBER=%cdnumber%" -T "TOTALDISCS=%totalcds%" -T "TOTALTRACKS=%numtracks%" -T "COMMENT=%comment%" %source% -o %dest%
TOC of the extracted CD
Track | Start | Length | Start sector | End sector
---------------------------------------------------------
1 | 0:00.00 | 5:17.11 | 0 | 23785
2 | 5:17.11 | 5:49.05 | 23786 | 49965
3 | 11:06.16 | 6:06.70 | 49966 | 77485
4 | 17:13.11 | 9:01.33 | 77486 | 118093
5 | 26:14.44 | 5:29.10 | 118094 | 142778
6 | 31:43.54 | 7:18.74 | 142779 | 175702
7 | 39:02.53 | 4:21.06 | 175703 | 195283
8 | 43:23.59 | 10:39.62 | 195284 | 243270
Track 1
Filename C:\EAC rips\01 - Roba mia.wav
Pre-gap length 0:00:02.00
Peak level 97.7 %
Extraction speed 2.3 X
Track quality 100.0 %
Test CRC 4CC8BA4B
Copy CRC 4CC8BA4B
Track not present in AccurateRip database
Copy OK
Track 2
Filename C:\EAC rips\02 - Fleurs du vent.wav
Pre-gap length 0:00:02.00
Peak level 97.7 %
Extraction speed 2.7 X
Track quality 100.0 %
Test CRC BBB49FF1
Copy CRC BBB49FF1
Track not present in AccurateRip database
Copy OK
Track 3
Filename C:\EAC rips\03 - Estrella del Norte.wav
Pre-gap length 0:00:02.00
Peak level 97.7 %
Extraction speed 3.0 X
Track quality 100.0 %
Test CRC 6B5BDD0F
Copy CRC 6B5BDD0F
Track not present in AccurateRip database
Copy OK
Track 4
Filename C:\EAC rips\04 - Old Time Blues.wav
Pre-gap length 0:00:02.00
Peak level 97.7 %
Extraction speed 3.4 X
Track quality 100.0 %
Test CRC BCD0CDFB
Copy CRC BCD0CDFB
Track not present in AccurateRip database
Copy OK
Track 5
Filename C:\EAC rips\05 - Elisi.wav
Pre-gap length 0:00:01.74
Peak level 97.7 %
Extraction speed 3.6 X
Track quality 100.0 %
Test CRC E0345A73
Copy CRC E0345A73
Track not present in AccurateRip database
Copy OK
Track 6
Filename C:\EAC rips\06 - Oxford Call.wav
Pre-gap length 0:00:02.00
Peak level 97.7 %
Extraction speed 3.9 X
Track quality 100.0 %
Test CRC 8C535A47
Copy CRC 8C535A47
Track not present in AccurateRip database
Copy OK
Track 7
Filename C:\EAC rips\07 - Calippo.wav
Pre-gap length 0:00:01.74
Peak level 97.7 %
Extraction speed 3.9 X
Track quality 100.0 %
Test CRC 712C0E29
Copy CRC 712C0E29
Track not present in AccurateRip database
Copy OK
Track 8
Filename C:\EAC rips\08 - Le Messager.wav
Pre-gap length 0:00:02.00
Peak level 97.7 %
Extraction speed 4.5 X
Track quality 100.0 %
Test CRC EF0063A5
Copy CRC EF0063A5
Track not present in AccurateRip database
Copy OK
None of the tracks are present in the AccurateRip database
No errors occurred
End of status report
---- CUETools DB Plugin V2.1.4
[CTDB TOCID: ZXHDlHdPKw5zSzWSWl7zFr4CIm0-] disk not present in database
Submit result: ZXHDlHdPKw5zSzWSWl7zFr4CIm0- has been uploaded
==== Log checksum 4E202AEA938A74F34D579414AEAB41BFF5A6DB522D0AD0F4FD64512BBD15CC8E ====
 
Содержание индексной карты (.CUE)
REM GENRE Jazz
REM DATE 2004
REM DISCID 680CAB08
REM COMMENT "ExactAudioCopy v1.0b3"
CATALOG 7619993001647
PERFORMER "Direzione Sud"
TITLE "Estrella del Norte"
FILE "01 - Roba mia.wav" WAVE
TRACK 01 AUDIO
TITLE "Roba mia"
PERFORMER "Direzione Sud"
ISRC CH1880416401
INDEX 01 00:00:00
TRACK 02 AUDIO
TITLE "Fleurs du vent"
PERFORMER "Direzione Sud"
ISRC CH1880416402
INDEX 00 05:15:11
FILE "02 - Fleurs du vent.wav" WAVE
INDEX 01 00:00:00
TRACK 03 AUDIO
TITLE "Estrella del Norte"
PERFORMER "Direzione Sud"
ISRC CH1880416403
INDEX 00 05:47:05
FILE "03 - Estrella del Norte.wav" WAVE
INDEX 01 00:00:00
TRACK 04 AUDIO
TITLE "Old Time Blues"
PERFORMER "Direzione Sud"
ISRC CH1880416404
INDEX 00 06:04:70
FILE "04 - Old Time Blues.wav" WAVE
INDEX 01 00:00:00
TRACK 05 AUDIO
TITLE "Elisi"
PERFORMER "Direzione Sud"
ISRC CH1880416405
INDEX 00 08:59:34
FILE "05 - Elisi.wav" WAVE
INDEX 01 00:00:00
TRACK 06 AUDIO
TITLE "Oxford Call"
PERFORMER "Direzione Sud"
ISRC CH1880416406
INDEX 00 05:27:10
FILE "06 - Oxford Call.wav" WAVE
INDEX 01 00:00:00
TRACK 07 AUDIO
TITLE "Calippo"
PERFORMER "Direzione Sud"
ISRC CH1880416407
INDEX 00 07:17:00
FILE "07 - Calippo.wav" WAVE
INDEX 01 00:00:00
TRACK 08 AUDIO
TITLE "Le Messager"
PERFORMER "Direzione Sud"
ISRC CH1880416408
INDEX 00 04:19:06
FILE "08 - Le Messager.wav" WAVE
INDEX 01 00:00:00
По всем вопросам пишите личное сообщение пользователю M0p94ok.
18:20
157
Нет комментариев. Ваш будет первым!