Вы используете незарегистрированную версию компонента "Вкладки"!

Поиск

(Free Jazz, Free Improvisation) Peter Brotzmann + Keiji Haino + Shoji Hano - Shadows - 2000, FLAC (tracks+.cue), lossless

(Free Jazz, Free Improvisation) Peter Brotzmann + Keiji Haino + Shoji Hano - Shadows - 2000, FLAC (tracks+.cue), lossless
Треклист:
Brötzmann + Haino + Hano / Shadows
Жанр: Free Jazz, Free Improvisation
Страна-производитель диска: Japan
Год издания: 2000
Издатель (лейбл): DIW Records
Номер по каталогу: DIW-938
Аудиокодек: FLAC (*.flac)
Тип рипа: tracks+.cue
Битрейт аудио: lossless
Продолжительность: 56:19
Источник (релизер): Max Monteiro
Наличие сканов в содержимом раздачи: нет
Треклист:
Shadows
1. Part 1 (25:23)
2. Part 2 (7:16)
3. Part 3 (12:29)
4. A Silhouette (9:16)
5. Encore (1:54)
All compositions by Peter Brötzmann + Keiji Haino + Shoji Hano.
Recorded at Schlachthof Wels (Austria) in March 31, 2000.
Peter Brötzmann – Tárogató, A-Clarinet, Tenor Sax
Keiji Haino – Electric Guitar, Voice
Shoji Hano – Bamboo Horn, Drums
 
Лог создания рипа
Exact Audio Copy V1.0 beta 3 from 29. August 2011
EAC extraction logfile from 8. June 2013, 13:44
Brötzmann + Haino + Hano / Shadows
Used drive : SlimtypeeNAU508 5 Adapter: 1 ID: 0
Read mode : Secure
Utilize accurate stream : Yes
Defeat audio cache : Yes
Make use of C2 pointers : No
Read offset correction : 6
Overread into Lead-In and Lead-Out : No
Fill up missing offset samples with silence : Yes
Delete leading and trailing silent blocks : No
Null samples used in CRC calculations : Yes
Used interface : Native Win32 interface for Win NT & 2000
Gap handling : Appended to previous track
Used output format : User Defined Encoder
Selected bitrate : 768 kBit/s
Quality : High
Add ID3 tag : No
Command line compressor : C:\Program Files (x86)\Exact Audio Copy\Flac\flac.exe
Additional command line options : -8 -V -T "ARTIST=%artist%" -T "TITLE=%title%" -T "ALBUM=%albumtitle%" -T "DATE=%year%" -T "TRACKNUMBER=%tracknr%" -T "GENRE=%genre%" -T "PERFORMER=%albuminterpret%" -T "COMPOSER=%composer%" %haslyrics%--tag-from-file=LYRICS="%lyricsfile%"%haslyrics% -T "ALBUMARTIST=%albumartist%" -T "DISCNUMBER=%cdnumber%" -T "TOTALDISCS=%totalcds%" -T "TOTALTRACKS=%numtracks%" -T "COMMENT=%comment%" %source% -o %dest%
TOC of the extracted CD
Track | Start | Length | Start sector | End sector
---------------------------------------------------------
1 | 0:00.00 | 25:23.00 | 0 | 114224
2 | 25:23.00 | 7:15.55 | 114225 | 146904
3 | 32:38.55 | 12:29.30 | 146905 | 203109
4 | 45:08.10 | 9:16.35 | 203110 | 244844
5 | 54:24.45 | 1:53.72 | 244845 | 253391
Track 1
Filename C:\EAC rips\01 - Shadows Part 1.wav
Pre-gap length 0:00:02.00
Peak level 99.2 %
Extraction speed 3.0 X
Track quality 100.0 %
Test CRC 460C57FC
Copy CRC 460C57FC
Accurately ripped (confidence 1) [3BA55364] (AR v1)
Copy OK
Track 2
Filename C:\EAC rips\02 - Shadows Part 2.wav
Pre-gap length 0:00:01.35
Peak level 99.2 %
Extraction speed 3.6 X
Track quality 100.0 %
Test CRC A0A3B2DB
Copy CRC A0A3B2DB
Accurately ripped (confidence 1) [502CEDBD] (AR v1)
Copy OK
Track 3
Filename C:\EAC rips\03 - Shadows Part 3.wav
Pre-gap length 0:00:00.70
Peak level 99.2 %
Extraction speed 4.1 X
Track quality 100.0 %
Test CRC E6F4DBEF
Copy CRC E6F4DBEF
Accurately ripped (confidence 1) [2CB1D18D] (AR v1)
Copy OK
Track 4
Filename C:\EAC rips\04 - A Silhouette.wav
Pre-gap length 0:00:01.00
Peak level 99.2 %
Extraction speed 4.4 X
Track quality 100.0 %
Test CRC 924BF041
Copy CRC 924BF041
Accurately ripped (confidence 1) [EB2D3534] (AR v1)
Copy OK
Track 5
Filename C:\EAC rips\05 - Encore.wav
Pre-gap length 0:00:01.30
Peak level 99.2 %
Extraction speed 3.6 X
Track quality 100.0 %
Test CRC 4D40E57F
Copy CRC 4D40E57F
Accurately ripped (confidence 1) [2642D3BF] (AR v1)
Copy OK
All tracks accurately ripped
No errors occurred
End of status report
---- CUETools DB Plugin V2.1.4
[CTDB TOCID: pbWjKnwJrAcngN.htnPtuNX2HNE-] disk not present in database
Submit result: pbWjKnwJrAcngN.htnPtuNX2HNE- has been uploaded
==== Log checksum 367D2929BC4B2708DD61067FAF7CA627955088A1F4DA0FAB611EB39248107B6C ====
 
Содержание индексной карты (.CUE)
REM GENRE Jazz
REM DATE 2000
REM DISCID 3A0D3205
REM COMMENT "ExactAudioCopy v1.0b3"
PERFORMER "Brötzmann + Haino + Hano"
TITLE "Shadows"
FILE "01 - Shadows Part 1.wav" WAVE
TRACK 01 AUDIO
TITLE "Shadows Part 1"
PERFORMER "Brötzmann + Haino + Hano"
INDEX 01 00:00:00
TRACK 02 AUDIO
TITLE "Shadows Part 2"
PERFORMER "Brötzmann + Haino + Hano"
INDEX 00 25:21:40
FILE "02 - Shadows Part 2.wav" WAVE
INDEX 01 00:00:00
TRACK 03 AUDIO
TITLE "Shadows Part 3"
PERFORMER "Brötzmann + Haino + Hano"
INDEX 00 07:14:60
FILE "03 - Shadows Part 3.wav" WAVE
INDEX 01 00:00:00
TRACK 04 AUDIO
TITLE "A Silhouette"
PERFORMER "Brötzmann + Haino + Hano"
INDEX 00 12:28:30
FILE "04 - A Silhouette.wav" WAVE
INDEX 01 00:00:00
TRACK 05 AUDIO
TITLE "Encore"
PERFORMER "Brötzmann + Haino + Hano"
INDEX 00 09:15:05
FILE "05 - Encore.wav" WAVE
INDEX 01 00:00:00
Any questions -> support@pro-jazz.com. По всем вопросам пишите -> support@pro-jazz.com
14:29
166
Нет комментариев. Ваш будет первым!