Вы используете незарегистрированную версию компонента "Вкладки"!

Поиск

(Free Jazz, Hat Hut Records) Urs Leimgruber, Joelle Leandre, Fritz Hauser - No Try No Fail - 1997, FLAC (tracks+.cue), lossless

(Free Jazz, Hat Hut Records) Urs Leimgruber, Joelle Leandre, Fritz Hauser - No Try No Fail - 1997, FLAC (tracks+.cue), lossless
Треклист:
Urs Leimgruber, Joëlle Léandre, Fritz Hauser / No Try No Fail
Жанр: Free Jazz, Hat Hut Records
Страна-производитель диска: Switzerland
Год издания: 1997
Издатель (лейбл): Hat Hut Records
Номер по каталогу: hatOLOGY 509
Аудиокодек: FLAC (*.flac)
Тип рипа: tracks+.cue
Битрейт аудио: lossless
Продолжительность: 49:07
Источник (релизер): Max Monteiro
Наличие сканов в содержимом раздачи: нет
Треклист:
1. First 12:06
2. Second 10:38
3. Third 6:53
4. Fourth 10:25
5. Last 9:06
All titles by Leimgruber, Léandre, Hauser.
Recorded live at Loft, Köln on March 10, 1996.
Urs Leimgruber – Soprano & Tenor Saxophones
Joëlle Léandre – Double Bass
Fritz Hauser – Drums, Percussion
 
Лог создания рипа
Exact Audio Copy V1.0 beta 3 from 29. August 2011
EAC extraction logfile from 31. May 2013, 21:41
Urs Leimgruber, Joëlle Léandre, Fritz Hauser / No Try No Fail
Used drive : SlimtypeeNAU508 5 Adapter: 1 ID: 0
Read mode : Secure
Utilize accurate stream : Yes
Defeat audio cache : Yes
Make use of C2 pointers : No
Read offset correction : 6
Overread into Lead-In and Lead-Out : No
Fill up missing offset samples with silence : Yes
Delete leading and trailing silent blocks : No
Null samples used in CRC calculations : Yes
Used interface : Native Win32 interface for Win NT & 2000
Gap handling : Appended to previous track
Used output format : User Defined Encoder
Selected bitrate : 768 kBit/s
Quality : High
Add ID3 tag : No
Command line compressor : C:\Program Files (x86)\Exact Audio Copy\Flac\flac.exe
Additional command line options : -8 -V -T "ARTIST=%artist%" -T "TITLE=%title%" -T "ALBUM=%albumtitle%" -T "DATE=%year%" -T "TRACKNUMBER=%tracknr%" -T "GENRE=%genre%" -T "PERFORMER=%albuminterpret%" -T "COMPOSER=%composer%" %haslyrics%--tag-from-file=LYRICS="%lyricsfile%"%haslyrics% -T "ALBUMARTIST=%albumartist%" -T "DISCNUMBER=%cdnumber%" -T "TOTALDISCS=%totalcds%" -T "TOTALTRACKS=%numtracks%" -T "COMMENT=%comment%" %source% -o %dest%
TOC of the extracted CD
Track | Start | Length | Start sector | End sector
---------------------------------------------------------
1 | 0:00.00 | 12:05.62 | 0 | 54436
2 | 12:05.62 | 10:38.00 | 54437 | 102286
3 | 22:43.62 | 6:53.00 | 102287 | 133261
4 | 29:36.62 | 10:24.38 | 133262 | 180099
5 | 40:01.25 | 9:05.50 | 180100 | 221024
Track 1
Filename C:\EAC rips\01 - First.wav
Pre-gap length 0:00:02.00
Peak level 91.7 %
Extraction speed 2.5 X
Track quality 100.0 %
Test CRC 4D7BF44B
Copy CRC 4D7BF44B
Accurately ripped (confidence 3) [95E09C63] (AR v1)
Copy OK
Track 2
Filename C:\EAC rips\02 - Second.wav
Peak level 92.5 %
Extraction speed 3.1 X
Track quality 100.0 %
Test CRC AAA1E60E
Copy CRC AAA1E60E
Accurately ripped (confidence 3) [42EC4C09] (AR v1)
Copy OK
Track 3
Filename C:\EAC rips\03 - Third.wav
Peak level 89.5 %
Extraction speed 3.0 X
Track quality 99.9 %
Test CRC D3561264
Copy CRC D3561264
Accurately ripped (confidence 3) [976308CD] (AR v1)
Copy OK
Track 4
Filename C:\EAC rips\04 - Fourth.wav
Peak level 92.3 %
Extraction speed 3.5 X
Track quality 99.9 %
Test CRC E9107B6C
Copy CRC E9107B6C
Accurately ripped (confidence 3) [88922CBD] (AR v1)
Copy OK
Track 5
Filename C:\EAC rips\05 - Last.wav
Peak level 91.9 %
Extraction speed 4.1 X
Track quality 100.0 %
Test CRC B26B6207
Copy CRC B26B6207
Accurately ripped (confidence 3) [6BE2F244] (AR v1)
Copy OK
All tracks accurately ripped
No errors occurred
End of status report
---- CUETools DB Plugin V2.1.4
[CTDB TOCID: YNJ7nRhycG9tYh9d0AzKz60szZQ-] found
Submit result: YNJ7nRhycG9tYh9d0AzKz60szZQ- has been confirmed
Track | CTDB Status
1 | (1/1) Accurately ripped
2 | (1/1) Accurately ripped
3 | (1/1) Accurately ripped
4 | (1/1) Accurately ripped
5 | (1/1) Accurately ripped
==== Log checksum CBAEE93F51A98DF5CC7448CB99F1B88ECE14CC0B68B484E8373C1B65CEB11FE2 ====
 
Содержание индексной карты (.CUE)
REM GENRE Jazz
REM DATE 1997
REM DISCID 410B8305
REM COMMENT "ExactAudioCopy v1.0b3"
PERFORMER "Urs Leimgruber, Joëlle Léandre, Fritz Hauser"
TITLE "No Try No Fail"
FILE "01 - First.wav" WAVE
TRACK 01 AUDIO
TITLE "First"
PERFORMER "Urs Leimgruber, Joëlle Léandre, Fritz Hauser"
INDEX 01 00:00:00
FILE "02 - Second.wav" WAVE
TRACK 02 AUDIO
TITLE "Second"
PERFORMER "Urs Leimgruber, Joëlle Léandre, Fritz Hauser"
INDEX 01 00:00:00
FILE "03 - Third.wav" WAVE
TRACK 03 AUDIO
TITLE "Third"
PERFORMER "Urs Leimgruber, Joëlle Léandre, Fritz Hauser"
INDEX 01 00:00:00
FILE "04 - Fourth.wav" WAVE
TRACK 04 AUDIO
TITLE "Fourth"
PERFORMER "Urs Leimgruber, Joëlle Léandre, Fritz Hauser"
INDEX 01 00:00:00
FILE "05 - Last.wav" WAVE
TRACK 05 AUDIO
TITLE "Last"
PERFORMER "Urs Leimgruber, Joëlle Léandre, Fritz Hauser"
INDEX 01 00:00:00
Any questions -> support@pro-jazz.com. По всем вопросам пишите -> support@pro-jazz.com
14:29
146
Нет комментариев. Ваш будет первым!