Вы используете незарегистрированную версию компонента "Вкладки"!

Поиск

(Free Improvisation, Contemporary Jazz) Spanish Fly (Steven Bernstein, Marcus Rojas, Tronzo) - Rags to Britches - 1994, FLAC (tracks+.cue), lossless

(Free Improvisation, Contemporary Jazz) Spanish Fly (Steven Bernstein, Marcus Rojas, Tronzo) - Rags to Britches - 1994, FLAC (tracks+.cue), lossless
Треклист:
Spanish Fly / Rags to Britches
Жанр: Free Improvisation, Contemporary Jazz
Страна-производитель диска: U.S.A.
Год издания: 1994
Издатель (лейбл): Knitting Factory Works
Номер по каталогу: KFW 114
Аудиокодек: FLAC (*.flac)
Тип рипа: tracks+.cue
Битрейт аудио: lossless
Продолжительность: 1:03:14
Источник (релизер): Max Monteiro
Наличие сканов в содержимом раздачи: да
Треклист:
01. Portrait (Steven Bernstein) 3:35
02. Little Thirteen (David Tronzo) 1:16
03. Marcus Mouth (Steven Bernstein / Marcus Rojas / David Tronzo) 5:58
04. Caveman (Steven Bernstein) 3:34
05. Baby (Steven Bernstein) 8:29
06. If 6 Were 9 (Jimi Hendrix) 3:22
07. Back & Tan Fantasy (Duke Ellington) 6:10
08. Playboys of theWestern World (Steven Bernstein / Marcus Rojas / David Tronzo) 3:59
09. Rags to Britches (Marcus Rojas) 10:56
10. Thirteen (David Tronzo) 5:37
11. Folk Song (traditional arr. Steven Bernstein) 5:30
12. Time Noise (David Tronzo) 1:05
13. Hoe Cheez (Steven Bernstein) 3:43
Recorded on January 11-16, 1994 live at the Knitting Factory.
Steven Bernstein – Trumpet, Slide Trumpet, Cornet, Flugelhorn, Crooning
Marcus Rojas – Tuba, Tuba Percussion, Tuba Singing
Tronzo – Slide Guitar
Also :
Ben Perowsky – Drums, Percussion (Folk Song, Baby, Hoe Cheez)
 
Лог создания рипа
Exact Audio Copy V1.0 beta 3 from 29. August 2011
EAC extraction logfile from 7. June 2013, 18:06
Spanish Fly / Rags to Britches
Used drive : SlimtypeeNAU508 5 Adapter: 1 ID: 0
Read mode : Secure
Utilize accurate stream : Yes
Defeat audio cache : Yes
Make use of C2 pointers : No
Read offset correction : 6
Overread into Lead-In and Lead-Out : No
Fill up missing offset samples with silence : Yes
Delete leading and trailing silent blocks : No
Null samples used in CRC calculations : Yes
Used interface : Native Win32 interface for Win NT & 2000
Gap handling : Appended to previous track
Used output format : User Defined Encoder
Selected bitrate : 768 kBit/s
Quality : High
Add ID3 tag : No
Command line compressor : C:\Program Files (x86)\Exact Audio Copy\Flac\flac.exe
Additional command line options : -8 -V -T "ARTIST=%artist%" -T "TITLE=%title%" -T "ALBUM=%albumtitle%" -T "DATE=%year%" -T "TRACKNUMBER=%tracknr%" -T "GENRE=%genre%" -T "PERFORMER=%albuminterpret%" -T "COMPOSER=%composer%" %haslyrics%--tag-from-file=LYRICS="%lyricsfile%"%haslyrics% -T "ALBUMARTIST=%albumartist%" -T "DISCNUMBER=%cdnumber%" -T "TOTALDISCS=%totalcds%" -T "TOTALTRACKS=%numtracks%" -T "COMMENT=%comment%" %source% -o %dest%
TOC of the extracted CD
Track | Start | Length | Start sector | End sector
---------------------------------------------------------
1 | 0:00.00 | 3:35.33 | 0 | 16157
2 | 3:35.33 | 1:15.67 | 16158 | 21849
3 | 4:51.25 | 5:57.53 | 21850 | 48677
4 | 10:49.03 | 3:33.57 | 48678 | 64709
5 | 14:22.60 | 8:28.45 | 64710 | 102854
6 | 22:51.30 | 3:22.15 | 102855 | 118019
7 | 26:13.45 | 6:09.68 | 118020 | 145762
8 | 32:23.38 | 3:58.47 | 145763 | 163659
9 | 36:22.10 | 10:56.28 | 163660 | 212887
10 | 47:18.38 | 5:37.37 | 212888 | 238199
11 | 52:56.00 | 5:30.33 | 238200 | 262982
12 | 58:26.33 | 1:04.40 | 262983 | 267822
13 | 59:30.73 | 3:43.22 | 267823 | 284569
Track 1
Filename C:\EAC rips\01 - Portrait.wav
Pre-gap length 0:00:02.00
Peak level 57.6 %
Extraction speed 1.7 X
Track quality 99.9 %
Test CRC 107C54F6
Copy CRC 107C54F6
Track not present in AccurateRip database
Copy OK
Track 2
Filename C:\EAC rips\02 - Little Thirteen.wav
Peak level 100.0 %
Extraction speed 1.7 X
Track quality 100.0 %
Test CRC 46037A34
Copy CRC 46037A34
Track not present in AccurateRip database
Copy OK
Track 3
Filename C:\EAC rips\03 - Marcus Mouth.wav
Peak level 100.0 %
Extraction speed 2.6 X
Track quality 100.0 %
Test CRC 1388B00E
Copy CRC 1388B00E
Track not present in AccurateRip database
Copy OK
Track 4
Filename C:\EAC rips\04 - Caveman.wav
Peak level 53.8 %
Extraction speed 2.1 X
Track quality 99.9 %
Test CRC 15CF5F81
Copy CRC 15CF5F81
Track not present in AccurateRip database
Copy OK
Track 5
Filename C:\EAC rips\05 - Baby.wav
Pre-gap length 0:00:00.60
Peak level 96.2 %
Extraction speed 2.9 X
Track quality 99.9 %
Test CRC 36CC3A88
Copy CRC 36CC3A88
Track not present in AccurateRip database
Copy OK
Track 6
Filename C:\EAC rips\06 - If 6 Were 9.wav
Peak level 86.4 %
Extraction speed 2.5 X
Track quality 99.9 %
Test CRC 468FB977
Copy CRC 468FB977
Track not present in AccurateRip database
Copy OK
Track 7
Filename C:\EAC rips\07 - Black & Tan Fantasy.wav
Pre-gap length 0:00:01.17
Peak level 78.6 %
Extraction speed 3.6 X
Track quality 100.0 %
Test CRC E4545D76
Copy CRC E4545D76
Track not present in AccurateRip database
Copy OK
Track 8
Filename C:\EAC rips\08 - Playboys of the Western World.wav
Peak level 85.2 %
Extraction speed 3.6 X
Track quality 100.0 %
Test CRC 911707B1
Copy CRC 911707B1
Track not present in AccurateRip database
Copy OK
Track 9
Filename C:\EAC rips\09 - Rags to Britches.wav
Peak level 74.3 %
Extraction speed 3.9 X
Track quality 99.9 %
Test CRC FA225CF2
Copy CRC FA225CF2
Track not present in AccurateRip database
Copy OK
Track 10
Filename C:\EAC rips\10 - Thirteen.wav
Peak level 96.6 %
Extraction speed 4.2 X
Track quality 100.0 %
Test CRC C5C8BF5A
Copy CRC C5C8BF5A
Track not present in AccurateRip database
Copy OK
Track 11
Filename C:\EAC rips\11 - Folk Song.wav
Peak level 89.2 %
Extraction speed 4.4 X
Track quality 100.0 %
Test CRC 445D8C90
Copy CRC 445D8C90
Track not present in AccurateRip database
Copy OK
Track 12
Filename C:\EAC rips\12 - Time Noise.wav
Pre-gap length 0:00:00.01
Peak level 68.4 %
Extraction speed 3.1 X
Track quality 100.0 %
Test CRC A8EEC81D
Copy CRC A8EEC81D
Track not present in AccurateRip database
Copy OK
Track 13
Filename C:\EAC rips\13 - Hoe Cheez.wav
Peak level 96.2 %
Extraction speed 4.3 X
Track quality 100.0 %
Test CRC F0E8B985
Copy CRC F0E8B985
Track not present in AccurateRip database
Copy OK
None of the tracks are present in the AccurateRip database
No errors occurred
End of status report
---- CUETools DB Plugin V2.1.4
[CTDB TOCID: k_Lqojsz8b7oo4E7DOWLJaGi_Ow-] found
Submit result: k_Lqojsz8b7oo4E7DOWLJaGi_Ow- has been confirmed
Track | CTDB Status
1 | (1/1) Accurately ripped
2 | (1/1) Accurately ripped
3 | (1/1) Accurately ripped
4 | (1/1) Accurately ripped
5 | (1/1) Accurately ripped
6 | (1/1) Accurately ripped
7 | (1/1) Accurately ripped
8 | (1/1) Accurately ripped
9 | (1/1) Accurately ripped
10 | (1/1) Accurately ripped
11 | (1/1) Accurately ripped
12 | (1/1) Accurately ripped
13 | (1/1) Accurately ripped
==== Log checksum 23348EF8CE10B57160C8B87E92F28A4A0E26472843C2FFE112D18F1D9282B4FF ====
 
Содержание индексной карты (.CUE)
REM GENRE Jazz
REM DATE 1994
REM DISCID BC0ED20D
REM COMMENT "ExactAudioCopy v1.0b3"
PERFORMER "Spanish Fly"
TITLE "Rags to Britches"
FILE "01 - Portrait.wav" WAVE
TRACK 01 AUDIO
TITLE "Portrait"
PERFORMER "Spanish Fly"
INDEX 01 00:00:00
FILE "02 - Little Thirteen.wav" WAVE
TRACK 02 AUDIO
TITLE "Little Thirteen"
PERFORMER "Spanish Fly"
INDEX 01 00:00:00
FILE "03 - Marcus Mouth.wav" WAVE
TRACK 03 AUDIO
TITLE "Marcus Mouth"
PERFORMER "Spanish Fly"
INDEX 01 00:00:00
FILE "04 - Caveman.wav" WAVE
TRACK 04 AUDIO
TITLE "Caveman"
PERFORMER "Spanish Fly"
INDEX 01 00:00:00
TRACK 05 AUDIO
TITLE "Baby"
PERFORMER "Spanish Fly"
INDEX 00 03:32:72
FILE "05 - Baby.wav" WAVE
INDEX 01 00:00:00
FILE "06 - If 6 Were 9.wav" WAVE
TRACK 06 AUDIO
TITLE "If 6 Were 9"
PERFORMER "Spanish Fly"
INDEX 01 00:00:00
TRACK 07 AUDIO
TITLE "Black & Tan Fantasy"
PERFORMER "Spanish Fly"
INDEX 00 03:20:73
FILE "07 - Black & Tan Fantasy.wav" WAVE
INDEX 01 00:00:00
FILE "08 - Playboys of the Western World.wav" WAVE
TRACK 08 AUDIO
TITLE "Playboys of the Western World"
PERFORMER "Spanish Fly"
INDEX 01 00:00:00
FILE "09 - Rags to Britches.wav" WAVE
TRACK 09 AUDIO
TITLE "Rags to Britches"
PERFORMER "Spanish Fly"
INDEX 01 00:00:00
FILE "10 - Thirteen.wav" WAVE
TRACK 10 AUDIO
TITLE "Thirteen"
PERFORMER "Spanish Fly"
INDEX 01 00:00:00
FILE "11 - Folk Song.wav" WAVE
TRACK 11 AUDIO
TITLE "Folk Song"
PERFORMER "Spanish Fly"
INDEX 01 00:00:00
TRACK 12 AUDIO
TITLE "Time Noise"
PERFORMER "Spanish Fly"
INDEX 00 05:30:32
FILE "12 - Time Noise.wav" WAVE
INDEX 01 00:00:00
FILE "13 - Hoe Cheez.wav" WAVE
TRACK 13 AUDIO
TITLE "Hoe Cheez"
PERFORMER "Spanish Fly"
INDEX 01 00:00:00
Any questions -> support@pro-jazz.com. По всем вопросам пишите -> support@pro-jazz.com
14:28
202
Нет комментариев. Ваш будет первым!