Вы используете незарегистрированную версию компонента "Вкладки"!

Поиск

(Free Jazz, Big Band) Hannes Zerbe Jazz Orchester - Eisleriana - 2012, FLAC (tracks+.cue), lossless

Треклист:
Hannes Zerbe Jazz Orchester / Eisleriana
Жанр: Free Jazz, Big Band
Страна-производитель диска: Germany
Год издания: 2012
Издатель (лейбл): Greve Studio Berlin
Страна: Germany
Аудиокодек: FLAC (*.flac)
Тип рипа: tracks+.cue
Битрейт аудио: lossless
Продолжительность: 59:46
Источник (релизер): Мой диск
Наличие сканов в содержимом раздачи: нет
Треклист:
01 - Compact 1
02 - Abakus
03 - Compact 3
04 - Uber den Selbstmord
05 - Eisleriana - Part 1
06 - Part 2
07 - Part 3
08 - Part 4
 
Лог создания рипа
Exact Audio Copy V1.0 beta 3 from 29. August 2011
EAC extraction logfile from 17. July 2013, 8:00
Hannes Zerbe Jazz Orchester / Eisleriana
Used drive : HL-DT-STDVD-RAM GH22NP20 Adapter: 1 ID: 0
Read mode : Secure
Utilize accurate stream : Yes
Defeat audio cache : Yes
Make use of C2 pointers : No
Read offset correction : 102
Overread into Lead-In and Lead-Out : No
Fill up missing offset samples with silence : Yes
Delete leading and trailing silent blocks : No
Null samples used in CRC calculations : Yes
Used interface : Native Win32 interface for Win NT & 2000
Gap handling : Appended to previous track
Used output format : User Defined Encoder
Selected bitrate : 768 kBit/s
Quality : High
Add ID3 tag : No
Command line compressor : C:\Program Files\Exact Audio Copy\FLAC\FLAC.EXE
Additional command line options : -6 -V -T "ARTIST=%artist%" -T "TITLE=%title%" -T "ALBUM=%albumtitle%" -T "DATE=%year%" -T "TRACKNUMBER=%tracknr%" -T "GENRE=%genre%" -T "COMMENT=%comment%" -T "BAND=%albuminterpret%" -T "ALBUMARTIST=%albuminterpret%" -T "COMPOSER=%composer%" %haslyrics%--tag-from-file=LYRICS="%lyricsfile%"%haslyrics% -T "DISCNUMBER=%cdnumber%" -T "TOTALDISCS=%totalcds%" -T "TOTALTRACKS=%numtracks%" %hascover%--picture="%coverfile%"%hascover% %source% -o %dest%
TOC of the extracted CD
Track | Start | Length | Start sector | End sector
---------------------------------------------------------
1 | 0:00.00 | 7:48.63 | 0 | 35162
2 | 7:48.63 | 11:43.04 | 35163 | 87891
3 | 19:31.67 | 8:46.45 | 87892 | 127386
4 | 28:18.37 | 8:13.01 | 127387 | 164362
5 | 36:31.38 | 4:16.13 | 164363 | 183575
6 | 40:47.51 | 5:25.29 | 183576 | 207979
7 | 46:13.05 | 7:31.00 | 207980 | 241804
8 | 53:44.05 | 6:04.72 | 241805 | 269176
Track 1
Filename D:\EAC\01 - Compact 1.wav
Pre-gap length 0:00:02.00
Peak level 96.6 %
Extraction speed 1.7 X
Track quality 100.0 %
Test CRC 60730611
Copy CRC 60730611
Track not present in AccurateRip database
Copy OK
Track 2
Filename D:\EAC\02 - Abakus.wav
Peak level 96.6 %
Extraction speed 2.3 X
Track quality 100.0 %
Test CRC D8797A19
Copy CRC D8797A19
Track not present in AccurateRip database
Copy OK
Track 3
Filename D:\EAC\03 - Compact 3.wav
Peak level 96.6 %
Extraction speed 2.6 X
Track quality 100.0 %
Test CRC 9CBC7B5F
Copy CRC 9CBC7B5F
Track not present in AccurateRip database
Copy OK
Track 4
Filename D:\EAC\04 - Ueber den Selbstmord.wav
Peak level 96.6 %
Extraction speed 2.6 X
Track quality 99.9 %
Test CRC 6FDE1F49
Copy CRC 6FDE1F49
Track not present in AccurateRip database
Copy OK
Track 5
Filename D:\EAC\05 - Eisleriana Part 1.wav
Peak level 96.6 %
Extraction speed 2.8 X
Track quality 100.0 %
Test CRC FD442CDF
Copy CRC FD442CDF
Track not present in AccurateRip database
Copy OK
Track 6
Filename D:\EAC\06 - Eisleriana Part 2.wav
Peak level 96.6 %
Extraction speed 3.0 X
Track quality 100.0 %
Test CRC 797DA207
Copy CRC 797DA207
Track not present in AccurateRip database
Copy OK
Track 7
Filename D:\EAC\07 - Eisleriana Part 3.wav
Peak level 96.6 %
Extraction speed 3.3 X
Track quality 100.0 %
Test CRC 2F247D0B
Copy CRC 2F247D0B
Track not present in AccurateRip database
Copy OK
Track 8
Filename D:\EAC\08 - Eisleriana Part 4.wav
Peak level 96.6 %
Extraction speed 3.4 X
Track quality 100.0 %
Test CRC A0ABD0BB
Copy CRC A0ABD0BB
Track not present in AccurateRip database
Copy OK
None of the tracks are present in the AccurateRip database
No errors occurred
End of status report
 
Содержание индексной карты (.CUE)
REM GENRE Avantgarde
REM DATE 2012
REM DISCID 650E0508
REM COMMENT "ExactAudioCopy v1.0b3"
PERFORMER "Hannes Zerbe Jazz Orchester"
TITLE "Eisleriana"
FILE "01 - Compact 1.wav" WAVE
TRACK 01 AUDIO
TITLE "Compact 1"
PERFORMER "Hannes Zerbe Jazz Orchester"
INDEX 01 00:00:00
FILE "02 - Abakus.wav" WAVE
TRACK 02 AUDIO
TITLE "Abakus"
PERFORMER "Hannes Zerbe Jazz Orchester"
INDEX 01 00:00:00
FILE "03 - Compact 3.wav" WAVE
TRACK 03 AUDIO
TITLE "Compact 3"
PERFORMER "Hannes Zerbe Jazz Orchester"
INDEX 01 00:00:00
FILE "04 - Ueber den Selbstmord.wav" WAVE
TRACK 04 AUDIO
TITLE "Ueber den Selbstmord"
PERFORMER "Hannes Zerbe Jazz Orchester"
INDEX 01 00:00:00
FILE "05 - Eisleriana Part 1.wav" WAVE
TRACK 05 AUDIO
TITLE "Eisleriana Part 1"
PERFORMER "Hannes Zerbe Jazz Orchester"
INDEX 01 00:00:00
FILE "06 - Eisleriana Part 2.wav" WAVE
TRACK 06 AUDIO
TITLE "Eisleriana Part 2"
PERFORMER "Hannes Zerbe Jazz Orchester"
INDEX 01 00:00:00
FILE "07 - Eisleriana Part 3.wav" WAVE
TRACK 07 AUDIO
TITLE "Eisleriana Part 3"
PERFORMER "Hannes Zerbe Jazz Orchester"
INDEX 01 00:00:00
FILE "08 - Eisleriana Part 4.wav" WAVE
TRACK 08 AUDIO
TITLE "Eisleriana Part 4"
PERFORMER "Hannes Zerbe Jazz Orchester"
INDEX 01 00:00:00
 
Состав
Alto Saxophone, Clarinet – Silke Eberhard
Alto Saxophone, Flute – Nico Lohmann
Baritone Saxophone – Alexander Beierbach
Bass Clarinet, Flute – Gebhard Ullmann
Clarinet – Jürgen Kupke
Contrabass – Horst Nonnenmacher
Drums – Christian Marien
French Horn – Stefan Most
Guitar – Jörg Schippa
Piano – Hannes Zerbe
Tenor Saxophone, Soprano Saxophone – Dirk Engelhard
Trombone – Florian Juncker, Jörg Huke
Trumpet – Christian Magnusson, Damir Bacikin
Trumpet, Flugelhorn – Nikolaus Neuser
Tuba – Martin Leipoldt
Any questions -> support@pro-jazz.com. По всем вопросам пишите -> support@pro-jazz.com
14:27
133
Нет комментариев. Ваш будет первым!