Вы используете незарегистрированную версию компонента "Вкладки"!

Поиск

(Avant-Garde) David Tronzo, J. A. Granelli, Peter Epstein - Crunch - 1999, FLAC (tracks+.cue), lossless

(Avant-Garde) David Tronzo, J. A. Granelli, Peter Epstein - Crunch - 1999, FLAC (tracks+.cue), lossless
Треклист:
Tronzo, Granelli, Epstein / Crunch
Жанр: Avant-Garde
Страна-производитель диска: U.S.A.
Год издания: 1999
Издатель (лейбл): Love Slave Records
Номер по каталогу: lvslv 101
Аудиокодек: FLAC (*.flac)
Тип рипа: tracks+.cue
Битрейт аудио: lossless
Продолжительность: 54:44
Источник (релизер): Max Monteiro
Наличие сканов в содержимом раздачи: да
Треклист:
01. Thing #8 (3:23)
02. Long Blue Dream (David Tronzo) (4:51)
03. Thing #6 (6:12)
04. Cumulus (Peter Epstein) (7:11)
05. Dance of the Hillbilly Robots (David Tronzo) (4:24)
06. Foo (Jerry Granelli) (5:35)
07. Thing #4 (7:14)
08. Thing #12 (11:05)
09. I’m Not Crazy, I’m Not Crazy, I’m Not Crazy… (Peter Epstein) (1:40)
10. Thing #2 (3:09)
Recorded April 9, 10, 1999 at Frank Booth, Brooklyn, NY.
David Tronzo – Slide Guitars
Peter Epstein – Saxophones
J. A. Granelli – Basses
 
Лог создания рипа
Exact Audio Copy V1.0 beta 3 from 29. August 2011
EAC extraction logfile from 7. June 2013, 13:09
Tronzo, Granelli, Epstein / Crunch
Used drive : SlimtypeeNAU508 5 Adapter: 1 ID: 0
Read mode : Secure
Utilize accurate stream : Yes
Defeat audio cache : Yes
Make use of C2 pointers : No
Read offset correction : 6
Overread into Lead-In and Lead-Out : No
Fill up missing offset samples with silence : Yes
Delete leading and trailing silent blocks : No
Null samples used in CRC calculations : Yes
Used interface : Native Win32 interface for Win NT & 2000
Gap handling : Appended to previous track
Used output format : User Defined Encoder
Selected bitrate : 768 kBit/s
Quality : High
Add ID3 tag : No
Command line compressor : C:\Program Files (x86)\Exact Audio Copy\Flac\flac.exe
Additional command line options : -8 -V -T "ARTIST=%artist%" -T "TITLE=%title%" -T "ALBUM=%albumtitle%" -T "DATE=%year%" -T "TRACKNUMBER=%tracknr%" -T "GENRE=%genre%" -T "PERFORMER=%albuminterpret%" -T "COMPOSER=%composer%" %haslyrics%--tag-from-file=LYRICS="%lyricsfile%"%haslyrics% -T "ALBUMARTIST=%albumartist%" -T "DISCNUMBER=%cdnumber%" -T "TOTALDISCS=%totalcds%" -T "TOTALTRACKS=%numtracks%" -T "COMMENT=%comment%" %source% -o %dest%
TOC of the extracted CD
Track | Start | Length | Start sector | End sector
---------------------------------------------------------
1 | 0:00.00 | 3:23.24 | 0 | 15248
2 | 3:23.24 | 4:51.00 | 15249 | 37073
3 | 8:14.24 | 6:11.67 | 37074 | 64965
4 | 14:26.16 | 7:11.21 | 64966 | 97311
5 | 21:37.37 | 4:23.72 | 97312 | 117108
6 | 26:01.34 | 5:34.50 | 117109 | 142208
7 | 31:36.09 | 7:14.13 | 142209 | 174771
8 | 38:50.22 | 11:04.50 | 174772 | 224621
9 | 49:54.72 | 1:39.69 | 224622 | 232115
10 | 51:34.66 | 3:09.25 | 232116 | 246315
Track 1
Filename C:\EAC rips\01 - Thing #8.wav
Pre-gap length 0:00:02.00
Peak level 79.7 %
Extraction speed 2.0 X
Track quality 100.0 %
Test CRC FB483562
Copy CRC FB483562
Accurately ripped (confidence 3) [B4AA6A95] (AR v1)
Copy OK
Track 2
Filename C:\EAC rips\02 - Long Blue Dream.wav
Peak level 97.8 %
Extraction speed 2.4 X
Track quality 100.0 %
Test CRC CE95989E
Copy CRC CE95989E
Accurately ripped (confidence 3) [33260FF5] (AR v1)
Copy OK
Track 3
Filename C:\EAC rips\03 - Thing #6.wav
Peak level 93.8 %
Extraction speed 2.8 X
Track quality 100.0 %
Test CRC 672A67EE
Copy CRC 672A67EE
Accurately ripped (confidence 3) [6E97FDBD] (AR v1)
Copy OK
Track 4
Filename C:\EAC rips\04 - Cumulus.wav
Peak level 90.2 %
Extraction speed 2.8 X
Track quality 99.9 %
Test CRC 322BB4F8
Copy CRC 322BB4F8
Accurately ripped (confidence 3) [2FE50DA1] (AR v1)
Copy OK
Track 5
Filename C:\EAC rips\05 - Dance of the Hillbilly Robots.wav
Peak level 89.7 %
Extraction speed 2.7 X
Track quality 99.9 %
Test CRC D7265DAE
Copy CRC D7265DAE
Accurately ripped (confidence 3) [7927BF3B] (AR v1)
Copy OK
Track 6
Filename C:\EAC rips\06 - Foo.wav
Peak level 94.5 %
Extraction speed 3.1 X
Track quality 99.9 %
Test CRC 1BD51BAE
Copy CRC 1BD51BAE
Accurately ripped (confidence 3) [690A4786] (AR v1)
Copy OK
Track 7
Filename C:\EAC rips\07 - Thing #4.wav
Peak level 90.9 %
Extraction speed 3.9 X
Track quality 100.0 %
Test CRC DD106C63
Copy CRC DD106C63
Accurately ripped (confidence 3) [6EA58362] (AR v1)
Copy OK
Track 8
Filename C:\EAC rips\08 - Thing #12.wav
Peak level 86.7 %
Extraction speed 4.0 X
Track quality 99.9 %
Test CRC E96EC485
Copy CRC E96EC485
Accurately ripped (confidence 3) [4DE2A3CE] (AR v1)
Copy OK
Track 9
Filename C:\EAC rips\09 - I'm Not Crazy, I'm Not Crazy, I'm Not Crazy....wav
Peak level 91.9 %
Extraction speed 2.4 X
Track quality 99.8 %
Test CRC 28FAA7E5
Copy CRC 28FAA7E5
Accurately ripped (confidence 3) [DB099E26] (AR v1)
Copy OK
Track 10
Filename C:\EAC rips\10 - Thing #2.wav
Peak level 63.6 %
Extraction speed 4.1 X
Track quality 100.0 %
Test CRC 14F2AAF0
Copy CRC 14F2AAF0
Accurately ripped (confidence 3) [7505770A] (AR v1)
Copy OK
All tracks accurately ripped
No errors occurred
End of status report
---- CUETools DB Plugin V2.1.4
[CTDB TOCID: K9.A37X8GSm_mSeFqOEJs0fuSHU-] disk not present in database
Submit result: K9.A37X8GSm_mSeFqOEJs0fuSHU- has been uploaded
==== Log checksum 28313D5F27D2F4C2B387DB6A7985024D04603D1B52725AC6E0B962C93FC06A78 ====
 
Содержание индексной карты (.CUE)
REM GENRE Jazz
REM DATE 1999
REM DISCID A60CD40A
REM COMMENT "ExactAudioCopy v1.0b3"
PERFORMER "Tronzo, Granelli, Epstein"
TITLE "Crunch"
FILE "01 - Thing #8.wav" WAVE
TRACK 01 AUDIO
TITLE "Thing #8"
PERFORMER "Tronzo, Granelli, Epstein"
INDEX 01 00:00:00
FILE "02 - Long Blue Dream.wav" WAVE
TRACK 02 AUDIO
TITLE "Long Blue Dream"
PERFORMER "Tronzo, Granelli, Epstein"
INDEX 01 00:00:00
FILE "03 - Thing #6.wav" WAVE
TRACK 03 AUDIO
TITLE "Thing #6"
PERFORMER "Tronzo, Granelli, Epstein"
INDEX 01 00:00:00
FILE "04 - Cumulus.wav" WAVE
TRACK 04 AUDIO
TITLE "Cumulus"
PERFORMER "Tronzo, Granelli, Epstein"
INDEX 01 00:00:00
FILE "05 - Dance of the Hillbilly Robots.wav" WAVE
TRACK 05 AUDIO
TITLE "Dance of the Hillbilly Robots"
PERFORMER "Tronzo, Granelli, Epstein"
INDEX 01 00:00:00
FILE "06 - Foo.wav" WAVE
TRACK 06 AUDIO
TITLE "Foo"
PERFORMER "Tronzo, Granelli, Epstein"
INDEX 01 00:00:00
FILE "07 - Thing #4.wav" WAVE
TRACK 07 AUDIO
TITLE "Thing #4"
PERFORMER "Tronzo, Granelli, Epstein"
INDEX 01 00:00:00
FILE "08 - Thing #12.wav" WAVE
TRACK 08 AUDIO
TITLE "Thing #12"
PERFORMER "Tronzo, Granelli, Epstein"
INDEX 01 00:00:00
FILE "09 - I'm Not Crazy, I'm Not Crazy, I'm Not Crazy....wav" WAVE
TRACK 09 AUDIO
TITLE "I'm Not Crazy, I'm Not Crazy, I'm Not Crazy..."
PERFORMER "Tronzo, Granelli, Epstein"
INDEX 01 00:00:00
FILE "10 - Thing #2.wav" WAVE
TRACK 10 AUDIO
TITLE "Thing #2"
PERFORMER "Tronzo, Granelli, Epstein"
INDEX 01 00:00:00
Any questions -> support@pro-jazz.com. По всем вопросам пишите -> support@pro-jazz.com
14:27
191
Нет комментариев. Ваш будет первым!