Вы используете незарегистрированную версию компонента "Вкладки"!

Поиск

(Free Improvisation, Intakt Records) Xavier Garcia - Gianni Gebbia - Nils Wogram - Pronto! - 2002, FLAC (tracks+.cue), lossless

(Free Improvisation, Intakt Records) Xavier Garcia - Gianni Gebbia - Nils Wogram - Pronto! - 2002, FLAC (tracks+.cue), lossless
Издатель (лейбл):
Треклист:
Garcia - Gebbia - Wogram / Pronto!
Жанр: Free Improvisation, Intakt Records
Страна-производитель диска: Switzerland
Год издания: 2002
Издатель (лейбл): Intakt Records
Номер по каталогу: CD 076
Аудиокодек: FLAC (*.flac)
Тип рипа: tracks+.cue
Битрейт аудио: lossless
Продолжительность: 45:04
Источник (релизер): Max Monteiro
Наличие сканов в содержимом раздачи: да
Треклист:
01. Vite, vite, vite 2:54
02. Cantus Firmus 4:13
03. Sikanex 4:29
04. Un peu de douceur dans un monde de brutes 5:45
05. Child Out 1:12
06. Clonebone 1:26
07. Marxch 1:13
08. Street of Shit 4:27
09. Vuccirìa 1:29
10. Église pygmée 1:50
11. A Soulful Point of View 11:39
12. Bavardage 1:37
13. Morning Raga 2:50
All compositions by Xavier Garcia, Gianni Gebbia, Nils Wogram.
Recorded February, 2001 at Miao Studio, Palermo, Italy.
Xavier Garcia – Sampler
Gianni Gebbia – Alto and Sopranino Saxophones
Nils Wogram – Trombone
 
Лог создания рипа
Exact Audio Copy V1.0 beta 3 from 29. August 2011
EAC extraction logfile from 6. June 2013, 13:23
Garcia - Gebbia - Wogram / Pronto!
Used drive : SlimtypeeNAU508 5 Adapter: 1 ID: 0
Read mode : Secure
Utilize accurate stream : Yes
Defeat audio cache : Yes
Make use of C2 pointers : No
Read offset correction : 6
Overread into Lead-In and Lead-Out : No
Fill up missing offset samples with silence : Yes
Delete leading and trailing silent blocks : No
Null samples used in CRC calculations : Yes
Used interface : Native Win32 interface for Win NT & 2000
Gap handling : Appended to previous track
Used output format : User Defined Encoder
Selected bitrate : 768 kBit/s
Quality : High
Add ID3 tag : No
Command line compressor : C:\Program Files (x86)\Exact Audio Copy\Flac\flac.exe
Additional command line options : -8 -V -T "ARTIST=%artist%" -T "TITLE=%title%" -T "ALBUM=%albumtitle%" -T "DATE=%year%" -T "TRACKNUMBER=%tracknr%" -T "GENRE=%genre%" -T "PERFORMER=%albuminterpret%" -T "COMPOSER=%composer%" %haslyrics%--tag-from-file=LYRICS="%lyricsfile%"%haslyrics% -T "ALBUMARTIST=%albumartist%" -T "DISCNUMBER=%cdnumber%" -T "TOTALDISCS=%totalcds%" -T "TOTALTRACKS=%numtracks%" -T "COMMENT=%comment%" %source% -o %dest%
TOC of the extracted CD
Track | Start | Length | Start sector | End sector
---------------------------------------------------------
1 | 0:00.00 | 2:53.74 | 0 | 13048
2 | 2:53.74 | 4:12.50 | 13049 | 31998
3 | 7:06.49 | 4:28.53 | 31999 | 52151
4 | 11:35.27 | 5:45.14 | 52152 | 78040
5 | 17:20.41 | 1:11.57 | 78041 | 83422
6 | 18:32.23 | 1:26.07 | 83423 | 89879
7 | 19:58.30 | 1:13.26 | 89880 | 95380
8 | 21:11.56 | 4:26.65 | 95381 | 115395
9 | 25:38.46 | 1:28.44 | 115396 | 122039
10 | 27:07.15 | 1:49.64 | 122040 | 130278
11 | 28:57.04 | 11:39.34 | 130279 | 182737
12 | 40:36.38 | 1:37.04 | 182738 | 190016
13 | 42:13.42 | 2:50.06 | 190017 | 202772
Track 1
Filename C:\EAC rips\01 - Vite, vite, vite.wav
Pre-gap length 0:00:02.00
Peak level 90.8 %
Extraction speed 1.9 X
Track quality 100.0 %
Test CRC 1C823256
Copy CRC 1C823256
Track not present in AccurateRip database
Copy OK
Track 2
Filename C:\EAC rips\02 - Cantus Firmus.wav
Pre-gap length 0:00:02.00
Peak level 60.8 %
Extraction speed 1.9 X
Track quality 99.9 %
Test CRC E6EA87AD
Copy CRC E6EA87AD
Track not present in AccurateRip database
Copy OK
Track 3
Filename C:\EAC rips\03 - Sikanex.wav
Pre-gap length 0:00:02.00
Peak level 87.5 %
Extraction speed 2.5 X
Track quality 100.0 %
Test CRC 22B96DCB
Copy CRC 22B96DCB
Track not present in AccurateRip database
Copy OK
Track 4
Filename C:\EAC rips\04 - Un peu de douceur dans un monde de brutes.wav
Pre-gap length 0:00:02.00
Peak level 32.3 %
Extraction speed 2.9 X
Track quality 100.0 %
Test CRC 6B0D6BE4
Copy CRC 6B0D6BE4
Track not present in AccurateRip database
Copy OK
Track 5
Filename C:\EAC rips\05 - Child Out.wav
Pre-gap length 0:00:02.00
Peak level 34.9 %
Extraction speed 2.2 X
Track quality 100.0 %
Test CRC 164F0822
Copy CRC 164F0822
Track not present in AccurateRip database
Copy OK
Track 6
Filename C:\EAC rips\06 - Clonebone.wav
Pre-gap length 0:00:02.00
Peak level 90.8 %
Extraction speed 2.4 X
Track quality 100.0 %
Test CRC F2B3A6B1
Copy CRC F2B3A6B1
Track not present in AccurateRip database
Copy OK
Track 7
Filename C:\EAC rips\07 - Marxch.wav
Pre-gap length 0:00:02.00
Peak level 57.9 %
Extraction speed 1.5 X
Track quality 99.8 %
Test CRC 29DB4B6E
Copy CRC 29DB4B6E
Track not present in AccurateRip database
Copy OK
Track 8
Filename C:\EAC rips\08 - Street of Shit.wav
Pre-gap length 0:00:02.00
Peak level 49.9 %
Extraction speed 3.1 X
Track quality 100.0 %
Test CRC 61DF70DC
Copy CRC 61DF70DC
Track not present in AccurateRip database
Copy OK
Track 9
Filename C:\EAC rips\09 - Vuccirìa.wav
Pre-gap length 0:00:02.00
Peak level 81.3 %
Extraction speed 2.6 X
Track quality 100.0 %
Test CRC EC2F498E
Copy CRC EC2F498E
Track not present in AccurateRip database
Copy OK
Track 10
Filename C:\EAC rips\10 - Église pygmée.wav
Pre-gap length 0:00:02.00
Peak level 41.5 %
Extraction speed 2.0 X
Track quality 99.9 %
Test CRC 6CB169BA
Copy CRC 6CB169BA
Track not present in AccurateRip database
Copy OK
Track 11
Filename C:\EAC rips\11 - A Soulful Point of View.wav
Pre-gap length 0:00:02.00
Peak level 90.8 %
Extraction speed 3.9 X
Track quality 100.0 %
Test CRC AA07ECBD
Copy CRC AA07ECBD
Track not present in AccurateRip database
Copy OK
Track 12
Filename C:\EAC rips\12 - Bavardage.wav
Pre-gap length 0:00:02.00
Peak level 51.0 %
Extraction speed 3.1 X
Track quality 100.0 %
Test CRC 91659F8A
Copy CRC 91659F8A
Track not present in AccurateRip database
Copy OK
Track 13
Filename C:\EAC rips\13 - Morning Raga.wav
Pre-gap length 0:00:02.00
Peak level 51.5 %
Extraction speed 3.6 X
Track quality 100.0 %
Test CRC CF2E73D9
Copy CRC CF2E73D9
Track not present in AccurateRip database
Copy OK
None of the tracks are present in the AccurateRip database
No errors occurred
End of status report
---- CUETools DB Plugin V2.1.4
[CTDB TOCID: 22Ap9v76ITDR9UBJND3nBbdlFYA-] disk not present in database
Submit result: 22Ap9v76ITDR9UBJND3nBbdlFYA- has been uploaded
==== Log checksum 580150A36ABB5C4813CDE9AFE89E3036268FF4D476503620A48ABA83DD3B558A ====
 
Содержание индексной карты (.CUE)
REM GENRE Jazz
REM DATE 2002
REM DISCID A10A8F0D
REM COMMENT "ExactAudioCopy v1.0b3"
PERFORMER "Garcia - Gebbia - Wogram"
TITLE "Pronto!"
FILE "01 - Vite, vite, vite.wav" WAVE
TRACK 01 AUDIO
TITLE "Vite, vite, vite"
PERFORMER "Garcia - Gebbia - Wogram"
INDEX 01 00:00:00
TRACK 02 AUDIO
TITLE "Cantus Firmus"
PERFORMER "Garcia - Gebbia - Wogram"
INDEX 00 02:51:74
FILE "02 - Cantus Firmus.wav" WAVE
INDEX 01 00:00:00
TRACK 03 AUDIO
TITLE "Sikanex"
PERFORMER "Garcia - Gebbia - Wogram"
INDEX 00 04:10:50
FILE "03 - Sikanex.wav" WAVE
INDEX 01 00:00:00
TRACK 04 AUDIO
TITLE "Un peu de douceur dans un monde de brutes"
PERFORMER "Garcia - Gebbia - Wogram"
INDEX 00 04:26:53
FILE "04 - Un peu de douceur dans un monde de brutes.wav" WAVE
INDEX 01 00:00:00
TRACK 05 AUDIO
TITLE "Child Out"
PERFORMER "Garcia - Gebbia - Wogram"
INDEX 00 05:43:14
FILE "05 - Child Out.wav" WAVE
INDEX 01 00:00:00
TRACK 06 AUDIO
TITLE "Clonebone"
PERFORMER "Garcia - Gebbia - Wogram"
INDEX 00 01:09:57
FILE "06 - Clonebone.wav" WAVE
INDEX 01 00:00:00
TRACK 07 AUDIO
TITLE "Marxch"
PERFORMER "Garcia - Gebbia - Wogram"
INDEX 00 01:24:07
FILE "07 - Marxch.wav" WAVE
INDEX 01 00:00:00
TRACK 08 AUDIO
TITLE "Street of Shit"
PERFORMER "Garcia - Gebbia - Wogram"
INDEX 00 01:11:26
FILE "08 - Street of Shit.wav" WAVE
INDEX 01 00:00:00
TRACK 09 AUDIO
TITLE "Vuccirìa"
PERFORMER "Garcia - Gebbia - Wogram"
INDEX 00 04:24:65
FILE "09 - Vuccirìa.wav" WAVE
INDEX 01 00:00:00
TRACK 10 AUDIO
TITLE "Église pygmée"
PERFORMER "Garcia - Gebbia - Wogram"
INDEX 00 01:26:44
FILE "10 - Église pygmée.wav" WAVE
INDEX 01 00:00:00
TRACK 11 AUDIO
TITLE "A Soulful Point of View"
PERFORMER "Garcia - Gebbia - Wogram"
INDEX 00 01:47:64
FILE "11 - A Soulful Point of View.wav" WAVE
INDEX 01 00:00:00
TRACK 12 AUDIO
TITLE "Bavardage"
PERFORMER "Garcia - Gebbia - Wogram"
INDEX 00 11:37:34
FILE "12 - Bavardage.wav" WAVE
INDEX 01 00:00:00
TRACK 13 AUDIO
TITLE "Morning Raga"
PERFORMER "Garcia - Gebbia - Wogram"
INDEX 00 01:35:04
FILE "13 - Morning Raga.wav" WAVE
INDEX 01 00:00:00
Any questions -> support@pro-jazz.com. По всем вопросам пишите -> support@pro-jazz.com
14:26
156
Нет комментариев. Ваш будет первым!