Вы используете незарегистрированную версию компонента "Вкладки"!

Поиск

(Avant-Garde Jazz) The Roscoe Mitchell Quartet (Jodie Christian, Reggie Workman, Albert "Tootie" Heath) - In Walked Buckner - 1999, FLAC (image+.cue), lossless

(Avant-Garde Jazz) The Roscoe Mitchell Quartet (Jodie Christian, Reggie Workman, Albert "Tootie" Heath) - In Walked Buckner - 1999, FLAC (image+.cue), lossless
Треклист:
The Roscoe Mitchell Quartet / In Walked Buckner
Жанр: Avant-Garde Jazz
Страна-производитель диска: US
Год издания: 1999
Издатель (лейбл): Delmark
Номер по каталогу: DE510
Аудиокодек: FLAC (*.flac)
Тип рипа: image+.cue
Битрейт аудио: lossless
Продолжительность: 64:47
Источник (релизер): cd
Наличие сканов в содержимом раздачи: нет
Треклист:
1 Off Shore 11:04
2 In Walked Buckner 5:56
3 Squeaky 7:40
4 The Le Dreher Suite 8:58
5 Three Sides of the Story 7:24
6 Till Autumn 4:04
7 Fly Over 11:15
8 Opposite Sides 8:25
 
Лог создания рипа
Exact Audio Copy V1.0 beta 2 from 29. April 2011
EAC extraction logfile from 6. June 2013, 11:54
Roscoe Mitchell / In Walked Buckner
Used drive : Optiarc DVD RW AD-7170A Adapter: 0 ID: 0
Read mode : Secure
Utilize accurate stream : Yes
Defeat audio cache : Yes
Make use of C2 pointers : No
Read offset correction : 48
Overread into Lead-In and Lead-Out : No
Fill up missing offset samples with silence : Yes
Delete leading and trailing silent blocks : No
Null samples used in CRC calculations : Yes
Used interface : Native Win32 interface for Win NT & 2000
Used output format : User Defined Encoder
Selected bitrate : 320 kBit/s
Quality : High
Add ID3 tag : No
Command line compressor : C:\Program Files\Exact Audio Copy\Flac\flac.exe
Additional command line options : -V -8 -T "Date=%year%" -T "Genre=%genre%" %source%
TOC of the extracted CD
Track | Start | Length | Start sector | End sector
---------------------------------------------------------
1 | 0:00.00 | 11:04.07 | 0 | 49806
2 | 11:04.07 | 5:56.18 | 49807 | 76524
3 | 17:00.25 | 7:40.00 | 76525 | 111024
4 | 24:40.25 | 8:58.55 | 111025 | 151429
5 | 33:39.05 | 7:24.00 | 151430 | 184729
6 | 41:03.05 | 4:04.17 | 184730 | 203046
7 | 45:07.22 | 11:15.08 | 203047 | 253679
8 | 56:22.30 | 8:25.12 | 253680 | 291566
Range status and errors
Selected range
Filename K:\ЕАС\Roscoe Mitchell - In Walked Buckner.wav
Peak level 98.6 %
Extraction speed 2.1 X
Range quality 100.0 %
Test CRC 44E9FC2A
Copy CRC 44E9FC2A
Copy OK
No errors occurred
AccurateRip summary
Track 1 not present in database
Track 2 not present in database
Track 3 not present in database
Track 4 not present in database
Track 5 not present in database
Track 6 not present in database
Track 7 not present in database
Track 8 not present in database
None of the tracks are present in the AccurateRip database
End of status report
==== Log checksum 8EEAAC4322377BD86DE8D95F488DEE603970CEF8A76EF5F141D617393E2139DE ====
 
Содержание индексной карты (.CUE)
REM GENRE Jazz
REM DATE 1999
REM DISCID 620F2F08
REM COMMENT "ExactAudioCopy v1.0b2"
PERFORMER "Roscoe Mitchell"
TITLE "In Walked Buckner"
FILE "Roscoe Mitchell - In Walked Buckner.flac" WAVE
TRACK 01 AUDIO
TITLE "Off Shore"
PERFORMER "Roscoe Mitchell"
ISRC 000000000000
INDEX 01 00:00:00
TRACK 02 AUDIO
TITLE "In Walked Buckner"
PERFORMER "Roscoe Mitchell"
ISRC 000000000000
INDEX 00 11:01:10
INDEX 01 11:04:07
TRACK 03 AUDIO
TITLE "Squeaky"
PERFORMER "Roscoe Mitchell"
ISRC 000000000000
INDEX 00 16:56:52
INDEX 01 17:00:25
TRACK 04 AUDIO
TITLE "The Le Dreher Suite"
PERFORMER "Roscoe Mitchell"
ISRC 000000000000
INDEX 00 24:37:30
INDEX 01 24:40:25
TRACK 05 AUDIO
TITLE "Three SIdes Of A Story"
PERFORMER "Roscoe Mitchell"
ISRC 000000000000
INDEX 00 33:35:67
INDEX 01 33:39:05
TRACK 06 AUDIO
TITLE "Till Autumn"
PERFORMER "Roscoe Mitchell"
ISRC 000000000000
INDEX 00 40:59:25
INDEX 01 41:03:05
TRACK 07 AUDIO
TITLE "Fly Over"
PERFORMER "Roscoe Mitchell"
ISRC 000000000000
INDEX 00 45:03:55
INDEX 01 45:07:22
TRACK 08 AUDIO
TITLE "Opposite SIdes"
PERFORMER "Roscoe Mitchell"
ISRC 000000000000
INDEX 00 56:19:40
INDEX 01 56:22:30
 
Об альбоме (сборнике)
Roscoe Mitchell once fronted perhaps his most daringly different trio with multi-instrumentalist Gerald Oshita and vocalist Thomas Buckner. This recording, dedicated to Buckner, captures the singing characteristics of Buckner in a purely instrumental way, and quite beautifully. Timbres are rare and off-kilter, free flowing, static, or flat-out swinging. In the middle is Mitchell, carrying the torch that has kept him a vital, adventurous American musician for three decades. Armed with a raft of woodwind instruments, Mitchell, with yeoman's help from bassist Reggie Workman, the judicious pianistics of Jodie Christian and the masterful drumming of Al Heath, makes the quartet, when they play together, unstoppable. Substantive solo space is distributed, especially for the leader. Check out his saxophone on the self-explanatory "Squeaky." Smaller combinations are fashioned with a no-time policy. Improvisations are stark and real. Spiritual evocations are evident. The bulk of the remainder of the eight-cut program, from the ethereally nautical "Off Shore," the lilting "Le Dreher Suite," and the haunting "Opposite Sides" emphatically showcase Mitchell's otherworldly flute work. They are convincing exhibits of Mitchell's position as perhaps the premier and essential improvised musical voice in the avant-garde of them all. In spirit, execution, and intent, Mitchell succeeds on all levels, except perhaps as a hitmaker. Surely his fans like it that way. Highly recommended to appreciators of this style.
 
Состав
Jodie Christian Bells, Piano
Albert "Tootie" Heath Didjeridu, Drums, Egyptian Flute, Flute, Percussion
Roscoe Mitchell Baroque Flute, Bells, Clarinet, Composer, Flute, Piccolo Flute, Primary Artist, Recorder, Recorder (Bass), Sax (Alto), Sax (Soprano), Sax (Tenor), Whistle (Human), Whistle (Instrument)
Reggie Workman Bass, Percussion, Whistle (Human)
По всем вопросам пишите личное сообщение пользователю M0p94ok.
14:25
155
Нет комментариев. Ваш будет первым!