Вы используете незарегистрированную версию компонента "Вкладки"!

Поиск

(Avant-Garde Jazz) Know Quartet (Stefano Maltese, Giorgio Occhipinti, Giuseppe Guarrella, Emanuele Primavera) - Monk Know - 2006, FLAC (image+.cue), lossless

(Avant-Garde Jazz) Know Quartet (Stefano Maltese, Giorgio Occhipinti, Giuseppe Guarrella, Emanuele Primavera) - Monk Know - 2006, FLAC (image+.cue), lossless
Треклист:
Know Quartet / Monk Know
Жанр: Avant-Garde Jazz
Страна-производитель диска: Italy
Год издания: 2006
Издатель (лейбл): Labirinti Sonori
Номер по каталогу: LS003
Аудиокодек: FLAC (*.flac)
Тип рипа: image+.cue
Битрейт аудио: lossless
Продолжительность: 64:37
Источник (релизер): cd
Наличие сканов в содержимом раздачи: нет
Треклист:
1 Epistrophy 6:12
2 Ask Me Now 6:27
3 Brilliant Corners 5:02
4 Off Minor 7:12
5 Crepuscole with Nellie 3:02
6 Evidence 4:39
7 Ruby My Dear 8:46
8 In Walked Bud 6:47
9 Japanese Folk Song 2:16
10 Monk's Mood 4:18
11 Rhythm-A-Ning 5:09
12 'Round Midnight 4:40
 
Лог создания рипа
Exact Audio Copy V1.0 beta 2 from 29. April 2011
EAC extraction logfile from 6. June 2013, 13:49
Know Quartet / Monk Know
Used drive : Optiarc DVD RW AD-7170A Adapter: 0 ID: 0
Read mode : Secure
Utilize accurate stream : Yes
Defeat audio cache : Yes
Make use of C2 pointers : No
Read offset correction : 48
Overread into Lead-In and Lead-Out : No
Fill up missing offset samples with silence : Yes
Delete leading and trailing silent blocks : No
Null samples used in CRC calculations : Yes
Used interface : Native Win32 interface for Win NT & 2000
Used output format : User Defined Encoder
Selected bitrate : 320 kBit/s
Quality : High
Add ID3 tag : No
Command line compressor : C:\Program Files\Exact Audio Copy\Flac\flac.exe
Additional command line options : -V -8 -T "Date=%year%" -T "Genre=%genre%" %source%
TOC of the extracted CD
Track | Start | Length | Start sector | End sector
---------------------------------------------------------
1 | 0:00.00 | 6:12.24 | 0 | 27923
2 | 6:12.24 | 6:27.48 | 27924 | 56996
3 | 12:39.72 | 5:02.46 | 56997 | 79692
4 | 17:42.43 | 7:12.60 | 79693 | 112152
5 | 24:55.28 | 3:02.42 | 112153 | 125844
6 | 27:57.70 | 4:39.45 | 125845 | 146814
7 | 32:37.40 | 8:46.60 | 146815 | 186324
8 | 41:24.25 | 6:47.45 | 186325 | 216894
9 | 48:11.70 | 2:16.59 | 216895 | 227153
10 | 50:28.54 | 4:18.53 | 227154 | 246556
11 | 54:47.32 | 5:09.24 | 246557 | 269755
12 | 59:56.56 | 4:40.41 | 269756 | 290796
Range status and errors
Selected range
Filename K:\ЕАС\Know Quartet - Monk Know.wav
Peak level 96.6 %
Extraction speed 2.0 X
Range quality 100.0 %
Test CRC D1D12336
Copy CRC D1D12336
Copy OK
No errors occurred
AccurateRip summary
Track 1 not present in database
Track 2 not present in database
Track 3 not present in database
Track 4 not present in database
Track 5 not present in database
Track 6 not present in database
Track 7 not present in database
Track 8 not present in database
Track 9 not present in database
Track 10 not present in database
Track 11 not present in database
Track 12 not present in database
None of the tracks are present in the AccurateRip database
End of status report
==== Log checksum 7812FB3F3D5C8881DC1AAC9B1981C8145DF9F41FD62734CE17FE2EBE7ED3EB7B ====
 
Содержание индексной карты (.CUE)
REM GENRE Jazz
REM DATE 2006
REM DISCID CC0F250C
REM COMMENT "ExactAudioCopy v1.0b2"
PERFORMER "Know Quartet"
TITLE "Monk Know"
FILE "Know Quartet - Monk Know.flac" WAVE
TRACK 01 AUDIO
TITLE "Epistrophy"
PERFORMER "Know Quartet"
ISRC 000000000000
INDEX 01 00:00:00
TRACK 02 AUDIO
TITLE "Ask Me Now"
PERFORMER "Know Quartet"
ISRC 000000000000
INDEX 00 06:10:24
INDEX 01 06:12:24
TRACK 03 AUDIO
TITLE "Brilliant Corners"
PERFORMER "Know Quartet"
ISRC 000000000000
INDEX 00 12:37:72
INDEX 01 12:39:72
TRACK 04 AUDIO
TITLE "Off Minor"
PERFORMER "Know Quartet"
ISRC 000000000000
INDEX 00 17:40:43
INDEX 01 17:42:43
TRACK 05 AUDIO
TITLE "Crepuscole with Nellie"
PERFORMER "Know Quartet"
ISRC 000000000000
INDEX 00 24:53:28
INDEX 01 24:55:28
TRACK 06 AUDIO
TITLE "Evidence"
PERFORMER "Know Quartet"
ISRC 000000000000
INDEX 00 27:55:70
INDEX 01 27:57:70
TRACK 07 AUDIO
TITLE "Ruby My Dear"
PERFORMER "Know Quartet"
ISRC 000000000000
INDEX 00 32:35:40
INDEX 01 32:37:40
TRACK 08 AUDIO
TITLE "In Walked Bud"
PERFORMER "Know Quartet"
ISRC 000000000000
INDEX 00 41:22:25
INDEX 01 41:24:25
TRACK 09 AUDIO
TITLE "Japanese Folk Song"
PERFORMER "Know Quartet"
ISRC 000000000000
INDEX 00 48:09:70
INDEX 01 48:11:70
TRACK 10 AUDIO
TITLE "Monk's Mood"
PERFORMER "Know Quartet"
ISRC 000000000000
INDEX 00 50:26:54
INDEX 01 50:28:54
TRACK 11 AUDIO
TITLE "Rhythm-A-Ning"
PERFORMER "Know Quartet"
ISRC 000000000000
INDEX 00 54:45:32
INDEX 01 54:47:32
TRACK 12 AUDIO
TITLE "'Round Midnight"
PERFORMER "Know Quartet"
ISRC 000000000000
INDEX 00 59:54:56
INDEX 01 59:56:56
 
Состав
Stefano Maltese Clarinet (Bass), Sax (Alto)
Giorgio Occhipinti Piano
Giuseppe Guarrella Double Bass
Emanuele Primavera Drums
Any questions -> support@pro-jazz.com. По всем вопросам пишите -> support@pro-jazz.com
14:25
132
Нет комментариев. Ваш будет первым!