Вы используете незарегистрированную версию компонента "Вкладки"!

Поиск

(Avant-Garde, Electronic, Experimental) Stephen Vitiello (featuring Pauline Oliveros & David Tronzo) - Bright and Dusty Things - 2001, FLAC (tracks+.cue), lossless

(Avant-Garde, Electronic, Experimental) Stephen Vitiello (featuring Pauline Oliveros & David Tronzo) - Bright and Dusty Things - 2001, FLAC (tracks+.cue), lossless
Треклист:
Stephen Vitiello (featuring Pauline Oliveros & David Tronzo) / Bright and Dusty Things
Жанр: Avant-Garde, Electronic, Experimental
Страна-производитель диска: U.S.A.
Год издания: 2001
Издатель (лейбл): New Albion
Номер по каталогу: NA 115 CD
Аудиокодек: FLAC (*.flac)
Тип рипа: tracks+.cue
Битрейт аудио: lossless
Продолжительность: 1:02:59
Источник (релизер): Max Monteiro
Наличие сканов в содержимом раздачи: да
Треклист:
01. Crossing Her Eyes and Sneezing 4:53
02. Light Readings 2:43
03. Light Readings 4:02
04. 18 (Watery Variation) 5:57
05. Po Clicks (Stephen Vitiello / Pauline Oliveros) 5:18
06. Odyssey Guitar Solo 5:32
07. Light Readings 10:18
08. Rebecca H. H. (Stephen Vitiello / David Tronzo) 5:06
09. Twister 11:17
10. Po Clicks (Stephen Vitiello / Pauline Oliveros) 2:22
11. Odyssey Guitar Solo (Without the Guitar) 5:31
All tracks by Stephen Vitiello, except where noted.
 
Лог создания рипа
Exact Audio Copy V1.0 beta 3 from 29. August 2011
EAC extraction logfile from 30. April 2013, 10:00
Stephen Vitiello / Bright and Dusty Things
Used drive : SlimtypeeNAU508 5 Adapter: 1 ID: 0
Read mode : Secure
Utilize accurate stream : Yes
Defeat audio cache : Yes
Make use of C2 pointers : No
Read offset correction : 6
Overread into Lead-In and Lead-Out : No
Fill up missing offset samples with silence : Yes
Delete leading and trailing silent blocks : No
Null samples used in CRC calculations : Yes
Used interface : Native Win32 interface for Win NT & 2000
Gap handling : Appended to previous track
Used output format : User Defined Encoder
Selected bitrate : 768 kBit/s
Quality : High
Add ID3 tag : No
Command line compressor : C:\Program Files (x86)\Exact Audio Copy\Flac\flac.exe
Additional command line options : -8 -V -T "ARTIST=%artist%" -T "TITLE=%title%" -T "ALBUM=%albumtitle%" -T "DATE=%year%" -T "TRACKNUMBER=%tracknr%" -T "GENRE=%genre%" -T "PERFORMER=%albuminterpret%" -T "COMPOSER=%composer%" %haslyrics%--tag-from-file=LYRICS="%lyricsfile%"%haslyrics% -T "ALBUMARTIST=%albumartist%" -T "DISCNUMBER=%cdnumber%" -T "TOTALDISCS=%totalcds%" -T "TOTALTRACKS=%numtracks%" -T "COMMENT=%comment%" %source% -o %dest%
TOC of the extracted CD
Track | Start | Length | Start sector | End sector
---------------------------------------------------------
1 | 0:00.00 | 4:53.22 | 0 | 21996
2 | 4:53.22 | 2:42.68 | 21997 | 34214
3 | 7:36.15 | 4:02.23 | 34215 | 52387
4 | 11:38.38 | 5:57.01 | 52388 | 79163
5 | 17:35.39 | 5:18.37 | 79164 | 103050
6 | 22:54.01 | 5:31.41 | 103051 | 127916
7 | 28:25.42 | 10:17.62 | 127917 | 174253
8 | 38:43.29 | 5:05.43 | 174254 | 197171
9 | 43:48.72 | 11:17.23 | 197172 | 247969
10 | 55:06.20 | 2:21.69 | 247970 | 258613
11 | 57:28.14 | 5:31.09 | 258614 | 283447
Track 1
Filename C:\EAC rips\01 - Crossing Her Eyes and Sneezing.wav
Pre-gap length 0:00:02.00
Peak level 100.0 %
Extraction speed 2.2 X
Track quality 100.0 %
Test CRC 9F2F2F0A
Copy CRC 9F2F2F0A
Track not present in AccurateRip database
Copy OK
Track 2
Filename C:\EAC rips\02 - Light Readings.wav
Pre-gap length 0:00:01.09
Peak level 98.8 %
Extraction speed 2.2 X
Track quality 100.0 %
Test CRC 34B10546
Copy CRC 34B10546
Track not present in AccurateRip database
Copy OK
Track 3
Filename C:\EAC rips\03 - Light Readings.wav
Pre-gap length 0:00:02.06
Peak level 100.0 %
Extraction speed 2.5 X
Track quality 100.0 %
Test CRC 4755BCBB
Copy CRC 4755BCBB
Track not present in AccurateRip database
Copy OK
Track 4
Filename C:\EAC rips\04 - 18 (Watery Variation).wav
Pre-gap length 0:00:02.55
Peak level 98.8 %
Extraction speed 2.9 X
Track quality 100.0 %
Test CRC 4B6F583F
Copy CRC 4B6F583F
Track not present in AccurateRip database
Copy OK
Track 5
Filename C:\EAC rips\05 - Po Clicks.wav
Pre-gap length 0:00:01.69
Peak level 100.0 %
Extraction speed 3.1 X
Track quality 100.0 %
Test CRC 8AAC0C8D
Copy CRC 8AAC0C8D
Track not present in AccurateRip database
Copy OK
Track 6
Filename C:\EAC rips\06 - Odyssey Guitar Solo.wav
Peak level 100.0 %
Extraction speed 3.4 X
Track quality 100.0 %
Test CRC 1C36CEAF
Copy CRC 1C36CEAF
Track not present in AccurateRip database
Copy OK
Track 7
Filename C:\EAC rips\07 - Light Readings.wav
Pre-gap length 0:00:02.17
Peak level 100.0 %
Extraction speed 3.5 X
Track quality 99.9 %
Test CRC 608016F0
Copy CRC 608016F0
Track not present in AccurateRip database
Copy OK
Track 8
Filename C:\EAC rips\08 - Rebecca H. H..wav
Pre-gap length 0:00:02.09
Peak level 99.4 %
Extraction speed 3.9 X
Track quality 100.0 %
Test CRC CECD76DE
Copy CRC CECD76DE
Track not present in AccurateRip database
Copy OK
Track 9
Filename C:\EAC rips\09 - Twister.wav
Peak level 98.7 %
Extraction speed 4.4 X
Track quality 100.0 %
Test CRC F15F818B
Copy CRC F15F818B
Track not present in AccurateRip database
Copy OK
Track 10
Filename C:\EAC rips\10 - Po Clicks.wav
Peak level 96.5 %
Extraction speed 3.8 X
Track quality 100.0 %
Test CRC 62BF864F
Copy CRC 62BF864F
Track not present in AccurateRip database
Copy OK
Track 11
Filename C:\EAC rips\11 - Odyssey Guitar Solo (Without the Guitar).wav
Pre-gap length 0:00:02.31
Peak level 85.5 %
Extraction speed 4.5 X
Track quality 100.0 %
Test CRC 4B9B558B
Copy CRC 4B9B558B
Track not present in AccurateRip database
Copy OK
None of the tracks are present in the AccurateRip database
No errors occurred
End of status report
---- CUETools DB Plugin V2.1.4
[CTDB TOCID: UB0OBjmhedFSjPkPqBIOJNs2.2g-] found
Submit result: UB0OBjmhedFSjPkPqBIOJNs2.2g- has been confirmed
Track | CTDB Status
1 | (2/2) Accurately ripped
2 | (2/2) Accurately ripped
3 | (2/2) Accurately ripped
4 | (2/2) Accurately ripped
5 | (2/2) Accurately ripped
6 | (2/2) Accurately ripped
7 | (2/2) Accurately ripped
8 | (2/2) Accurately ripped
9 | (2/2) Accurately ripped
10 | (2/2) Accurately ripped
11 | (2/2) Accurately ripped
==== Log checksum FE5528BE018FBCD64C6AD6633E8A4AE63A35E595CC58E0C63CFEF3287DE8F406 ====
 
Содержание индексной карты (.CUE)
REM GENRE Experimental
REM DATE 2001
REM DISCID 880EC30B
REM COMMENT "ExactAudioCopy v1.0b3"
PERFORMER "Stephen Vitiello"
TITLE "Bright and Dusty Things"
FILE "01 - Crossing Her Eyes and Sneezing.wav" WAVE
TRACK 01 AUDIO
TITLE "Crossing Her Eyes and Sneezing"
PERFORMER "Stephen Vitiello"
INDEX 01 00:00:00
TRACK 02 AUDIO
TITLE "Light Readings"
PERFORMER "Stephen Vitiello"
INDEX 00 04:52:13
FILE "02 - Light Readings.wav" WAVE
INDEX 01 00:00:00
TRACK 03 AUDIO
TITLE "Light Readings"
PERFORMER "Stephen Vitiello"
INDEX 00 02:40:62
FILE "03 - Light Readings.wav" WAVE
INDEX 01 00:00:00
TRACK 04 AUDIO
TITLE "18 (Watery Variation)"
PERFORMER "Stephen Vitiello"
INDEX 00 03:59:43
FILE "04 - 18 (Watery Variation).wav" WAVE
INDEX 01 00:00:00
TRACK 05 AUDIO
TITLE "Po Clicks"
PERFORMER "Stephen Vitiello"
INDEX 00 05:55:07
FILE "05 - Po Clicks.wav" WAVE
INDEX 01 00:00:00
FILE "06 - Odyssey Guitar Solo.wav" WAVE
TRACK 06 AUDIO
TITLE "Odyssey Guitar Solo"
PERFORMER "Stephen Vitiello"
INDEX 01 00:00:00
TRACK 07 AUDIO
TITLE "Light Readings"
PERFORMER "Stephen Vitiello"
INDEX 00 05:29:24
FILE "07 - Light Readings.wav" WAVE
INDEX 01 00:00:00
TRACK 08 AUDIO
TITLE "Rebecca H. H."
PERFORMER "Stephen Vitiello"
INDEX 00 10:15:53
FILE "08 - Rebecca H. H..wav" WAVE
INDEX 01 00:00:00
FILE "09 - Twister.wav" WAVE
TRACK 09 AUDIO
TITLE "Twister"
PERFORMER "Stephen Vitiello"
INDEX 01 00:00:00
FILE "10 - Po Clicks.wav" WAVE
TRACK 10 AUDIO
TITLE "Po Clicks"
PERFORMER "Stephen Vitiello"
INDEX 01 00:00:00
TRACK 11 AUDIO
TITLE "Odyssey Guitar Solo (Without the Guitar)"
PERFORMER "Stephen Vitiello"
INDEX 00 02:19:38
FILE "11 - Odyssey Guitar Solo (Without the Guitar).wav" WAVE
INDEX 01 00:00:00
Доп. информация: Recorded and mixed by Paul Geluso at Harvestworks, NYC, and by Stephen Vitiello at home and at the Institute for Electronic Arts, Alfred University.
 
Состав
01. Crossing Her Eyes and Sneezing
David Tronzo – Cheese Grater and Guitar
Danny Tunick – Vibes (sample source)
02. Light Readings
03. Light Readings
04. 18 (Watery Variation)
David Tronzo – Guitar
05. Po Clicks
Pauline Oliveros – Accordion
David Tronzo – Guitar
06. Odyssey Guitar Solo
07. Light Readings
08. Rebecca H. H.
David Tronzo – Guitar
Rebecca Moore – Violin (sample source)
09. Twister
Lydia Forbes – Violin
Pauline Oliveros – Accordion
Danny Tunick – Vibes
10. Po Clicks
Pauline Oliveros – Accordion
David Tronzo – Guitar
11. Odyssey Guitar Solo (Without the Guitar)
Pauline Oliveros – Accordion
Stephen Vitiello – Light Readings and Sound Processing
Any questions -> support@pro-jazz.com. По всем вопросам пишите -> support@pro-jazz.com
14:24
140
Нет комментариев. Ваш будет первым!