Вы используете незарегистрированную версию компонента "Вкладки"!

Поиск

(Free Jazz, Free Improvisation) Per Henrik Wallin, Mats Gustafsson, Kjell Nordeson - Dolphins, Dolphins, Dolphins - 1992, FLAC (image+.cue), lossless

(Free Jazz, Free Improvisation) Per Henrik Wallin, Mats Gustafsson, Kjell Nordeson - Dolphins, Dolphins, Dolphins - 1992, FLAC (image+.cue), lossless
Треклист:
Per Henrik Wallin, Mats Gustafsson, Kjell Nordeson / Dolphins, Dolphins, Dolphins
Жанр: Free Jazz, Free Improvisation
Страна-производитель диска: Sweden
Год издания: 1992
Издатель (лейбл): Dragon Records
Номер по каталогу: DRCD 215
Аудиокодек: FLAC (*.flac)
Тип рипа: image+.cue
Битрейт аудио: lossless
Продолжительность: 64:26
Источник (релизер): cd
Наличие сканов в содержимом раздачи: нет
Треклист:
1 Korpo II 2:58
2 Nu Nu Och Da Nu Gar Da Och Nu 6:12
3 Marodorerna Over Bagdad 3:30
4 Dolphins Dolphins Dolphins 4:27
5 J.W. 10:34
6 Haecuba 8:06
7 Min Elva Kan Kaste Alba 2:38
8 Du Gar Den Ton 10:07
9 Viska 4:19
10 Dobeln 1981 4:02
11 Omvanda Stycket 4:37
12 I Should Care 2:38
 
Лог создания рипа
Exact Audio Copy V1.0 beta 2 from 29. April 2011
EAC extraction logfile from 14. November 2012, 13:09
Per Henrik Wallin, Mats Gustafsson, Kjell Nordeson / Dolphins, Dolphins, Dolphins
Used drive : Optiarc DVD RW AD-7170A Adapter: 0 ID: 0
Read mode : Secure
Utilize accurate stream : Yes
Defeat audio cache : Yes
Make use of C2 pointers : No
Read offset correction : 48
Overread into Lead-In and Lead-Out : No
Fill up missing offset samples with silence : Yes
Delete leading and trailing silent blocks : No
Null samples used in CRC calculations : Yes
Used interface : Native Win32 interface for Win NT & 2000
Used output format : User Defined Encoder
Selected bitrate : 320 kBit/s
Quality : High
Add ID3 tag : No
Command line compressor : C:\Program Files\Exact Audio Copy\Flac\flac.exe
Additional command line options : -V -8 -T "Date=%year%" -T "Genre=%genre%" %source%
TOC of the extracted CD
Track | Start | Length | Start sector | End sector
---------------------------------------------------------
1 | 0:00.00 | 3:00.00 | 0 | 13499
2 | 3:00.00 | 6:13.00 | 13500 | 41474
3 | 9:13.00 | 3:31.00 | 41475 | 57299
4 | 12:44.00 | 4:27.55 | 57300 | 77379
5 | 17:11.55 | 10:34.57 | 77380 | 124986
6 | 27:46.37 | 8:09.00 | 124987 | 161661
7 | 35:55.37 | 2:39.38 | 161662 | 173624
8 | 38:35.00 | 10:07.37 | 173625 | 219186
9 | 48:42.37 | 4:24.38 | 219187 | 239024
10 | 53:07.00 | 4:04.00 | 239025 | 257324
11 | 57:11.00 | 4:38.72 | 257325 | 278246
12 | 61:49.72 | 2:36.65 | 278247 | 290011
Range status and errors
Selected range
Filename K:\ЕАС\Per Henrik Wallin, Mats Gustafsson, Kjell Nordeson - Dolphins, Dolphins, Dolphins.wav
Peak level 99.2 %
Extraction speed 2.1 X
Range quality 99.9 %
Test CRC 992B3FD5
Copy CRC 992B3FD5
Copy OK
No errors occurred
AccurateRip summary
Track 1 accurately ripped (confidence 2) [1A73B51C] (AR v1)
Track 2 accurately ripped (confidence 2) [5A029973] (AR v1)
Track 3 accurately ripped (confidence 2) [AD59E04F] (AR v1)
Track 4 accurately ripped (confidence 2) [6425A131] (AR v1)
Track 5 accurately ripped (confidence 2) [1E4936C1] (AR v1)
Track 6 accurately ripped (confidence 2) [11225E79] (AR v1)
Track 7 accurately ripped (confidence 2) [FA65A823] (AR v1)
Track 8 accurately ripped (confidence 2) [F7E31980] (AR v1)
Track 9 accurately ripped (confidence 2) [1F5946FD] (AR v1)
Track 10 accurately ripped (confidence 2) [674AC123] (AR v1)
Track 11 accurately ripped (confidence 2) [218EA8BE] (AR v1)
Track 12 accurately ripped (confidence 2) [13571714] (AR v1)
All tracks accurately ripped
End of status report
==== Log checksum 0D86D4820E0505A24875A670711FEDE87D06485A6CD8035FA681927F687C36EC ====
 
Содержание индексной карты (.CUE)
REM GENRE Jazz
REM DATE 1992
REM DISCID A60F1A0C
REM COMMENT "ExactAudioCopy v1.0b2"
PERFORMER "Per Henrik Wallin, Mats Gustafsson, Kjell Nordeson"
TITLE "Dolphins, Dolphins, Dolphins "
FILE "Per Henrik Wallin, Mats Gustafsson, Kjell Nordeson - Dolphins, Dolphins, Dolphins.flac" WAVE
TRACK 01 AUDIO
TITLE "Korpo II "
PERFORMER "Per Henrik Wallin, Mats Gustafsson, Kjell Nordeson"
INDEX 01 00:00:00
TRACK 02 AUDIO
TITLE "Nu Nu Och Da Nu Gar Da Och Nu"
PERFORMER "Per Henrik Wallin, Mats Gustafsson, Kjell Nordeson"
INDEX 00 02:58:12
INDEX 01 03:00:00
TRACK 03 AUDIO
TITLE "Marodorerna Over Bagdad"
PERFORMER "Per Henrik Wallin, Mats Gustafsson, Kjell Nordeson"
INDEX 00 09:12:25
INDEX 01 09:13:00
TRACK 04 AUDIO
TITLE "Dolphins Dolphins Dolphins"
PERFORMER "Per Henrik Wallin, Mats Gustafsson, Kjell Nordeson"
INDEX 00 12:42:25
INDEX 01 12:44:00
TRACK 05 AUDIO
TITLE "J.W."
PERFORMER "Per Henrik Wallin, Mats Gustafsson, Kjell Nordeson"
INDEX 00 17:11:00
INDEX 01 17:11:55
TRACK 06 AUDIO
TITLE "Haecuba"
PERFORMER "Per Henrik Wallin, Mats Gustafsson, Kjell Nordeson"
INDEX 00 27:45:25
INDEX 01 27:46:37
TRACK 07 AUDIO
TITLE "Min Elva Kan Kaste Alba"
PERFORMER "Per Henrik Wallin, Mats Gustafsson, Kjell Nordeson"
INDEX 00 35:52:32
INDEX 01 35:55:37
TRACK 08 AUDIO
TITLE "Du Gar Den Ton"
PERFORMER "Per Henrik Wallin, Mats Gustafsson, Kjell Nordeson"
INDEX 00 38:33:67
INDEX 01 38:35:00
TRACK 09 AUDIO
TITLE "Viska"
PERFORMER "Per Henrik Wallin, Mats Gustafsson, Kjell Nordeson"
INDEX 00 48:41:67
INDEX 01 48:42:37
TRACK 10 AUDIO
TITLE "Dobeln 1981"
PERFORMER "Per Henrik Wallin, Mats Gustafsson, Kjell Nordeson"
INDEX 00 53:00:62
INDEX 01 53:07:00
TRACK 11 AUDIO
TITLE "Omvanda Stycket"
PERFORMER "Per Henrik Wallin, Mats Gustafsson, Kjell Nordeson"
INDEX 00 57:08:32
INDEX 01 57:11:00
TRACK 12 AUDIO
TITLE "I Should Care"
PERFORMER "Per Henrik Wallin, Mats Gustafsson, Kjell Nordeson"
INDEX 00 61:47:67
INDEX 01 61:49:72
Доп. информация: Recorded at Fylkingen, Stockholm, August 26 (1, 6, 10), 27 (2, 4) and 28, 1991
 
Состав
Drums, Percussion – Kjell Nordeson
Piano – Per Henrik Wallin
Tenor Saxophone, Soprano Saxophone, Baritone Saxophone – Mats Gustafsson
Any questions -> support@pro-jazz.com. По всем вопросам пишите -> support@pro-jazz.com
05:30
171
Нет комментариев. Ваш будет первым!