Вы используете незарегистрированную версию компонента "Вкладки"!

Поиск

(Avant-Garde Jazz, Modern Creative) Willem Breuker Kollektief - Celebrating 25 Years On The Road (2CD) - 2002, FLAC (tracks+.cue), lossless

(Avant-Garde Jazz, Modern Creative) Willem Breuker Kollektief - Celebrating 25 Years On The Road (2CD) - 2002, FLAC (tracks+.cue), lossless
Треклист:
•Willem Breuker Kollektief - Celebrating 25 Years On The Road (2CD)•
Жанр: Avant-Garde Jazz, Modern Creative
Страна-производитель диска: Holland
Год издания: 2002
Издатель (лейбл): BV Haast
Номер по каталогу: CD 9914/15
Аудиокодек: FLAC (*.flac)
Тип рипа: tracks+.cue
Битрейт аудио: lossless
Продолжительность: 02:32:17
Источник (релизер): d'Avignon
Наличие сканов в содержимом раздачи: да
 
CD1 - 01:14:59
Треклист:

01.Rascalls [01:45]
02.Anabelle [06:35]
03.Jalousie-Song [05:31]
04.Tango Superior [05:20]
05.Waddenzee Suite [10:53]
06.Potsdammer Stomp [04:53]
07.Our Day Will Come [05:23]
08.Dance Of The Tumblers [02:50]
09.Duke Edward/Misere [09:18]
10.La Santa Espina (Sardane de la Liverte) [02:17]
11.Chi Mai [03:22]
12.El Tren Blindado [01:40]
13.Sahara Sack [06:43]
14.Sylvia's Proposal [02:32]
15.Remarkable Girl [03:16]
16.Finale Hamburg [02:35]
 
Лог создания рипа
Exact Audio Copy V1.0 beta 3 from 29. August 2011
EAC extraction logfile from 13. November 2012, 18:05
Willem Breuker Kollektief / Celebrating 25 Years On The Road
Used drive : TSSTcorpCDDVDW SH-216AB Adapter: 1 ID: 0
Read mode : Secure
Utilize accurate stream : Yes
Defeat audio cache : Yes
Make use of C2 pointers : No
Read offset correction : 6
Overread into Lead-In and Lead-Out : No
Fill up missing offset samples with silence : Yes
Delete leading and trailing silent blocks : No
Null samples used in CRC calculations : Yes
Used interface : Native Win32 interface for Win NT & 2000
Gap handling : Appended to previous track
Used output format : User Defined Encoder
Selected bitrate : 768 kBit/s
Quality : High
Add ID3 tag : No
Command line compressor : C:\Program Files (x86)\Exact Audio Copy\FLAC\FLAC.EXE
Additional command line options : -6 -V -T "ARTIST=%artist%" -T "TITLE=%title%" -T "ALBUM=%albumtitle%" -T "DATE=%year%" -T "TRACKNUMBER=%tracknr%" -T "GENRE=%genre%" -T "COMMENT=%comment%" -T "BAND=%albuminterpret%" -T "ALBUMARTIST=%albuminterpret%" -T "COMPOSER=%composer%" %haslyrics%--tag-from-file=LYRICS="%lyricsfile%"%haslyrics% -T "DISCNUMBER=%cdnumber%" -T "TOTALDISCS=%totalcds%" -T "TOTALTRACKS=%numtracks%" %hascover%--picture="%coverfile%"%hascover% %source% -o %dest%
TOC of the extracted CD
Track | Start | Length | Start sector | End sector
---------------------------------------------------------
1 | 0:00.00 | 1:45.65 | 0 | 7939
2 | 1:45.65 | 6:35.57 | 7940 | 37621
3 | 8:21.47 | 5:31.40 | 37622 | 62486
4 | 13:53.12 | 5:20.15 | 62487 | 86501
5 | 19:13.27 | 10:53.20 | 86502 | 135496
6 | 30:06.47 | 4:53.40 | 135497 | 157511
7 | 35:00.12 | 5:23.50 | 157512 | 181786
8 | 40:23.62 | 2:50.58 | 181787 | 194594
9 | 43:14.45 | 9:18.20 | 194595 | 236464
10 | 52:32.65 | 2:17.42 | 236465 | 246781
11 | 54:50.32 | 3:22.02 | 246782 | 261933
12 | 58:12.34 | 1:40.01 | 261934 | 269434
13 | 59:52.35 | 6:43.40 | 269435 | 299699
14 | 66:36.00 | 2:32.42 | 299700 | 311141
15 | 69:08.42 | 3:16.20 | 311142 | 325861
16 | 72:24.62 | 2:35.13 | 325862 | 337499
Track 1
Filename C:\Users\astarte\03. POST\willem breuker\cd1\01. Rascalls.wav
Pre-gap length 0:00:02.00
Peak level 84.5 %
Extraction speed 3.9 X
Track quality 100.0 %
Copy CRC 7027188C
Accurately ripped (confidence 1) [B68E98FE] (AR v2)
Copy OK
Track 2
Filename C:\Users\astarte\03. POST\willem breuker\cd1\02. Anabelle.wav
Pre-gap length 0:00:01.14
Peak level 98.0 %
Extraction speed 4.7 X
Track quality 99.9 %
Copy CRC A1A59EBB
Accurately ripped (confidence 1) [BDD93FD2] (AR v2)
Copy OK
Track 3
Filename C:\Users\astarte\03. POST\willem breuker\cd1\03. Jalousie-Song.wav
Peak level 100.0 %
Extraction speed 5.8 X
Track quality 100.0 %
Copy CRC 4A184D96
Accurately ripped (confidence 1) [91D10CA9] (AR v2)
Copy OK
Track 4
Filename C:\Users\astarte\03. POST\willem breuker\cd1\04. Tango Superior.wav
Pre-gap length 0:00:01.06
Peak level 83.5 %
Extraction speed 6.4 X
Track quality 100.0 %
Copy CRC FA422B9A
Accurately ripped (confidence 1) [31DC0536] (AR v2)
Copy OK
Track 5
Filename C:\Users\astarte\03. POST\willem breuker\cd1\05. Waddenzee Suite.wav
Peak level 47.1 %
Extraction speed 7.4 X
Track quality 100.0 %
Copy CRC F85CC264
Accurately ripped (confidence 1) [9096C7DB] (AR v2)
Copy OK
Track 6
Filename C:\Users\astarte\03. POST\willem breuker\cd1\06. Potsdammer Stomp.wav
Pre-gap length 0:00:01.86
Peak level 74.6 %
Extraction speed 7.6 X
Track quality 100.0 %
Copy CRC 3B7E063B
Accurately ripped (confidence 1) [5937E191] (AR v2)
Copy OK
Track 7
Filename C:\Users\astarte\03. POST\willem breuker\cd1\07. Our Day Will Come.wav
Pre-gap length 0:00:01.53
Peak level 77.8 %
Extraction speed 6.8 X
Track quality 99.9 %
Copy CRC 831085C5
Accurately ripped (confidence 1) [2F20576F] (AR v2)
Copy OK
Track 8
Filename C:\Users\astarte\03. POST\willem breuker\cd1\08. Dance Of The Tumblers.wav
Pre-gap length 0:00:02.16
Peak level 86.1 %
Extraction speed 7.1 X
Track quality 100.0 %
Copy CRC F4BD2C73
Accurately ripped (confidence 1) [C66F47EC] (AR v2)
Copy OK
Track 9
Filename C:\Users\astarte\03. POST\willem breuker\cd1\09. Duke Edward,Misere.wav
Pre-gap length 0:00:01.57
Peak level 70.4 %
Extraction speed 8.9 X
Track quality 100.0 %
Copy CRC 29910850
Accurately ripped (confidence 1) [C67B2FFF] (AR v2)
Copy OK
Track 10
Filename C:\Users\astarte\03. POST\willem breuker\cd1\10. La Santa Espina (Sardane de la Liverte).wav
Pre-gap length 0:00:01.77
Peak level 72.5 %
Extraction speed 7.8 X
Track quality 100.0 %
Copy CRC 96371978
Accurately ripped (confidence 1) [9153E512] (AR v2)
Copy OK
Track 11
Filename C:\Users\astarte\03. POST\willem breuker\cd1\11. Chi Mai.wav
Pre-gap length 0:00:01.06
Peak level 70.8 %
Extraction speed 8.4 X
Track quality 100.0 %
Copy CRC 9A13D088
Accurately ripped (confidence 1) [6E436260] (AR v2)
Copy OK
Track 12
Filename C:\Users\astarte\03. POST\willem breuker\cd1\12. El Tren Blindado.wav
Pre-gap length 0:00:01.25
Peak level 75.9 %
Extraction speed 7.3 X
Track quality 100.0 %
Copy CRC 2AD28E8D
Accurately ripped (confidence 1) [A805A952] (AR v2)
Copy OK
Track 13
Filename C:\Users\astarte\03. POST\willem breuker\cd1\13. Sahara Sack.wav
Pre-gap length 0:00:01.44
Peak level 72.0 %
Extraction speed 9.6 X
Track quality 100.0 %
Copy CRC D096900C
Accurately ripped (confidence 1) [8F6C88C8] (AR v2)
Copy OK
Track 14
Filename C:\Users\astarte\03. POST\willem breuker\cd1\14. Sylvia's Proposal.wav
Pre-gap length 0:00:01.13
Peak level 47.0 %
Extraction speed 8.6 X
Track quality 100.0 %
Copy CRC 313F5204
Accurately ripped (confidence 1) [974A3853] (AR v2)
Copy OK
Track 15
Filename C:\Users\astarte\03. POST\willem breuker\cd1\15. Remarkable Girl.wav
Pre-gap length 0:00:01.06
Peak level 62.9 %
Extraction speed 9.2 X
Track quality 100.0 %
Copy CRC 99F555A4
Accurately ripped (confidence 1) [BCEA7B54] (AR v2)
Copy OK
Track 16
Filename C:\Users\astarte\03. POST\willem breuker\cd1\16. Finale Hamburg.wav
Pre-gap length 0:00:01.20
Peak level 74.0 %
Extraction speed 9.0 X
Track quality 100.0 %
Copy CRC 5B7C2F4B
Accurately ripped (confidence 1) [CFB85467] (AR v2)
Copy OK
All tracks accurately ripped
No errors occurred
End of status report
==== Log checksum 9B1F1E211327C0B324A35EA43CD293507B7E9E02413AA7D5C8A6509841F28C92 ====
 
Содержание индексной карты (.CUE)
REM GENRE Jazz
REM DISCID E5119410
REM COMMENT "ExactAudioCopy v1.0b3"
PERFORMER "Willem Breuker Kollektief"
TITLE "Celebrating 25 Years On The Road"
FILE "01. Rascalls.wav" WAVE
TRACK 01 AUDIO
TITLE "Rascalls"
PERFORMER "Willem Breuker Kollektief"
ISRC NLA519914001
INDEX 01 00:00:00
TRACK 02 AUDIO
TITLE "Anabelle"
PERFORMER "Willem Breuker Kollektief"
ISRC NLA519914002
INDEX 00 01:44:54
FILE "02. Anabelle.wav" WAVE
INDEX 01 00:00:00
FILE "03. Jalousie-Song.wav" WAVE
TRACK 03 AUDIO
TITLE "Jalousie-Song"
PERFORMER "Willem Breuker Kollektief"
ISRC NLA519914003
INDEX 01 00:00:00
TRACK 04 AUDIO
TITLE "Tango Superior"
PERFORMER "Willem Breuker Kollektief"
ISRC NLA519914004
INDEX 00 05:30:35
FILE "04. Tango Superior.wav" WAVE
INDEX 01 00:00:00
FILE "05. Waddenzee Suite.wav" WAVE
TRACK 05 AUDIO
TITLE "Waddenzee Suite"
PERFORMER "Willem Breuker Kollektief"
ISRC NLA519914005
INDEX 01 00:00:00
TRACK 06 AUDIO
TITLE "Potsdammer Stomp"
PERFORMER "Willem Breuker Kollektief"
ISRC NLA519914006
INDEX 00 10:51:30
FILE "06. Potsdammer Stomp.wav" WAVE
INDEX 01 00:00:00
TRACK 07 AUDIO
TITLE "Our Day Will Come"
PERFORMER "Willem Breuker Kollektief"
ISRC NLA519914007
INDEX 00 04:52:00
FILE "07. Our Day Will Come.wav" WAVE
INDEX 01 00:00:00
TRACK 08 AUDIO
TITLE "Dance Of The Tumblers"
PERFORMER "Willem Breuker Kollektief"
ISRC NLA519914008
INDEX 00 05:21:38
FILE "08. Dance Of The Tumblers.wav" WAVE
INDEX 01 00:00:00
TRACK 09 AUDIO
TITLE "Duke Edward/Misere"
PERFORMER "Willem Breuker Kollektief"
ISRC NLA519914009
INDEX 00 02:49:15
FILE "09. Duke Edward,Misere.wav" WAVE
INDEX 01 00:00:00
TRACK 10 AUDIO
TITLE "La Santa Espina (Sardane de la Liverte)"
PERFORMER "Willem Breuker Kollektief"
ISRC NLA519914010
INDEX 00 09:16:37
FILE "10. La Santa Espina (Sardane de la Liverte).wav" WAVE
INDEX 01 00:00:00
TRACK 11 AUDIO
TITLE "Chi Mai"
PERFORMER "Willem Breuker Kollektief"
ISRC NLA519914011
INDEX 00 02:16:37
FILE "11. Chi Mai.wav" WAVE
INDEX 01 00:00:00
TRACK 12 AUDIO
TITLE "El Tren Blindado"
PERFORMER "Willem Breuker Kollektief"
ISRC NLA519914012
INDEX 00 03:20:58
FILE "12. El Tren Blindado.wav" WAVE
INDEX 01 00:00:00
TRACK 13 AUDIO
TITLE "Sahara Sack"
PERFORMER "Willem Breuker Kollektief"
ISRC NLA519914013
INDEX 00 01:38:43
FILE "13. Sahara Sack.wav" WAVE
INDEX 01 00:00:00
TRACK 14 AUDIO
TITLE "Sylvia's Proposal"
PERFORMER "Willem Breuker Kollektief"
ISRC NLA519914014
INDEX 00 06:42:30
FILE "14. Sylvia's Proposal.wav" WAVE
INDEX 01 00:00:00
TRACK 15 AUDIO
TITLE "Remarkable Girl"
PERFORMER "Willem Breuker Kollektief"
ISRC NLA519914015
INDEX 00 02:31:37
FILE "15. Remarkable Girl.wav" WAVE
INDEX 01 00:00:00
TRACK 16 AUDIO
TITLE "Finale Hamburg"
PERFORMER "Willem Breuker Kollektief"
ISRC NLA519914016
INDEX 00 03:15:05
FILE "16. Finale Hamburg.wav" WAVE
INDEX 01 00:00:00
 
CD2 - 01:17:17
Треклист:

01.Casablanca [08:24]
02.Steaming [06:41]
03.Sensemaya [07:15]
04.The Typwriter [01:38]
05.Warsaw Concerto [08:57]
06.Oratorium [05:08]
07.Rumba [01:02]
08.Sprechgesang [01:44]
09.Als de hele werelnd je vergaat [01:44]
10.Song of Mandalay [03:55]
11.My Ship [06:43]
12.Diep in mijn hart [03:59]
13.Pakkepappen 4 [12:41]
14.Hap Sap (but not from Jaffa) [05:57]
15.I want to Be Happy [01:22]
 
Лог создания рипа
Exact Audio Copy V1.0 beta 3 from 29. August 2011
EAC extraction logfile from 13. November 2012, 18:20
Willem Breuker Kollektief / Celebrating 25 Years On The Road, Disc 2
Used drive : TSSTcorpCDDVDW SH-216AB Adapter: 1 ID: 0
Read mode : Secure
Utilize accurate stream : Yes
Defeat audio cache : Yes
Make use of C2 pointers : No
Read offset correction : 6
Overread into Lead-In and Lead-Out : No
Fill up missing offset samples with silence : Yes
Delete leading and trailing silent blocks : No
Null samples used in CRC calculations : Yes
Used interface : Native Win32 interface for Win NT & 2000
Gap handling : Appended to previous track
Used output format : User Defined Encoder
Selected bitrate : 768 kBit/s
Quality : High
Add ID3 tag : No
Command line compressor : C:\Program Files (x86)\Exact Audio Copy\FLAC\FLAC.EXE
Additional command line options : -6 -V -T "ARTIST=%artist%" -T "TITLE=%title%" -T "ALBUM=%albumtitle%" -T "DATE=%year%" -T "TRACKNUMBER=%tracknr%" -T "GENRE=%genre%" -T "COMMENT=%comment%" -T "BAND=%albuminterpret%" -T "ALBUMARTIST=%albuminterpret%" -T "COMPOSER=%composer%" %haslyrics%--tag-from-file=LYRICS="%lyricsfile%"%haslyrics% -T "DISCNUMBER=%cdnumber%" -T "TOTALDISCS=%totalcds%" -T "TOTALTRACKS=%numtracks%" %hascover%--picture="%coverfile%"%hascover% %source% -o %dest%
TOC of the extracted CD
Track | Start | Length | Start sector | End sector
---------------------------------------------------------
1 | 0:00.00 | 8:24.12 | 0 | 37811
2 | 8:24.12 | 6:41.28 | 37812 | 67914
3 | 15:05.40 | 7:15.25 | 67915 | 100564
4 | 22:20.65 | 1:38.70 | 100565 | 107984
5 | 23:59.60 | 8:57.17 | 107985 | 148276
6 | 32:57.02 | 5:08.65 | 148277 | 171441
7 | 38:05.67 | 1:02.40 | 171442 | 176131
8 | 39:08.32 | 1:44.43 | 176132 | 183974
9 | 40:53.00 | 1:44.72 | 183975 | 191846
10 | 42:37.72 | 3:55.53 | 191847 | 209524
11 | 46:33.50 | 6:43.10 | 209525 | 239759
12 | 53:16.60 | 3:59.65 | 239760 | 257749
13 | 57:16.50 | 12:41.05 | 257750 | 314829
14 | 69:57.55 | 5:57.17 | 314830 | 341621
15 | 75:54.72 | 1:22.70 | 341622 | 347841
Track 1
Filename C:\Users\astarte\03. POST\willem breuker\cd2\01. Casablanca.wav
Pre-gap length 0:00:02.00
Peak level 71.0 %
Extraction speed 5.5 X
Track quality 100.0 %
Copy CRC 3637BA16
Accurately ripped (confidence 1) [32278210] (AR v2)
Copy OK
Track 2
Filename C:\Users\astarte\03. POST\willem breuker\cd2\02. Steaming.wav
Pre-gap length 0:00:01.40
Peak level 84.9 %
Extraction speed 5.5 X
Track quality 99.9 %
Copy CRC 40DE064C
Accurately ripped (confidence 1) [4343BA1A] (AR v2)
Copy OK
Track 3
Filename C:\Users\astarte\03. POST\willem breuker\cd2\03. Sensemaya.wav
Pre-gap length 0:00:01.73
Peak level 97.9 %
Extraction speed 4.7 X
Track quality 99.9 %
Copy CRC B45070C6
Cannot be verified as accurate (confidence 1) [57B19CDE], AccurateRip returned [0CAFD68D] (AR v2)
Copy OK
Track 4
Filename C:\Users\astarte\03. POST\willem breuker\cd2\04. The Typwriter.wav
Pre-gap length 0:00:01.50
Peak level 77.8 %
Extraction speed 3.9 X
Track quality 99.8 %
Copy CRC B7EE4B15
Accurately ripped (confidence 1) [72E385F0] (AR v2)
Copy OK
Track 5
Filename C:\Users\astarte\03. POST\willem breuker\cd2\05. Warsaw Concerto.wav
Peak level 98.0 %
Extraction speed 7.7 X
Track quality 100.0 %
Copy CRC 029EDB64
Accurately ripped (confidence 1) [0F8F55A1] (AR v2)
Copy OK
Track 6
Filename C:\Users\astarte\03. POST\willem breuker\cd2\06. Oratorium.wav
Peak level 77.7 %
Extraction speed 7.9 X
Track quality 100.0 %
Copy CRC 4EB5DF8C
Accurately ripped (confidence 1) [4AE8E995] (AR v2)
Copy OK
Track 7
Filename C:\Users\astarte\03. POST\willem breuker\cd2\07. Rumba.wav
Peak level 72.6 %
Extraction speed 5.6 X
Track quality 100.0 %
Copy CRC 6F5D739F
Accurately ripped (confidence 1) [53EE5C70] (AR v2)
Copy OK
Track 8
Filename C:\Users\astarte\03. POST\willem breuker\cd2\08. Sprechgesang.wav
Peak level 98.0 %
Extraction speed 4.6 X
Track quality 99.8 %
Copy CRC 8279A338
Accurately ripped (confidence 1) [B271A281] (AR v2)
Copy OK
Track 9
Filename C:\Users\astarte\03. POST\willem breuker\cd2\09. Als de hele werelnd je vergaat.wav
Peak level 87.6 %
Extraction speed 6.4 X
Track quality 100.0 %
Copy CRC DFBB1429
Accurately ripped (confidence 1) [D339695A] (AR v2)
Copy OK
Track 10
Filename C:\Users\astarte\03. POST\willem breuker\cd2\10. Song of Mandalay.wav
Pre-gap length 0:00:01.33
Peak level 52.3 %
Extraction speed 6.6 X
Track quality 99.9 %
Copy CRC 083DB7D9
Accurately ripped (confidence 1) [8EEA7647] (AR v2)
Copy OK
Track 11
Filename C:\Users\astarte\03. POST\willem breuker\cd2\11. My Ship.wav
Pre-gap length 0:00:01.17
Peak level 77.2 %
Extraction speed 8.8 X
Track quality 100.0 %
Copy CRC 1EFBF970
Accurately ripped (confidence 1) [11756CEB] (AR v2)
Copy OK
Track 12
Filename C:\Users\astarte\03. POST\willem breuker\cd2\12. Diep in mijn hart.wav
Peak level 98.0 %
Extraction speed 8.8 X
Track quality 100.0 %
Copy CRC 0014CD48
Accurately ripped (confidence 1) [7B637241] (AR v2)
Copy OK
Track 13
Filename C:\Users\astarte\03. POST\willem breuker\cd2\13. Pakkepappen 4.wav
Pre-gap length 0:00:01.17
Peak level 98.8 %
Extraction speed 10.2 X
Track quality 100.0 %
Copy CRC 5C3C9DC6
Accurately ripped (confidence 1) [F4BB2E5F] (AR v2)
Copy OK
Track 14
Filename C:\Users\astarte\03. POST\willem breuker\cd2\14. Hap Sap (but not from Jaffa).wav
Peak level 98.0 %
Extraction speed 8.7 X
Track quality 99.9 %
Copy CRC 3828F275
Accurately ripped (confidence 1) [F21C10F8] (AR v2)
Copy OK
Track 15
Filename C:\Users\astarte\03. POST\willem breuker\cd2\15. I want to Be Happy.wav
Peak level 98.5 %
Extraction speed 7.1 X
Track quality 100.0 %
Copy CRC 59C0612C
Accurately ripped (confidence 1) [3A1A9C31] (AR v2)
Copy OK
14 track(s) accurately ripped
1 track(s) could not be verified as accurate
Some tracks could not be verified as accurate
No errors occurred
End of status report
==== Log checksum 8E753557AB75C0683D4917A2646260BEEF3E967649D8A0FFD8F6BE1F896E44E3 ====
 
Содержание индексной карты (.CUE)
REM GENRE Jazz
REM DATE 1999
REM DISCID F6121D0F
REM COMMENT "ExactAudioCopy v1.0b3"
PERFORMER "Willem Breuker Kollektief"
TITLE "Celebrating 25 Years On The Road, Disc 2"
FILE "01. Casablanca.wav" WAVE
TRACK 01 AUDIO
TITLE "Casablanca"
PERFORMER "Willem Breuker Kollektief"
INDEX 01 00:00:00
TRACK 02 AUDIO
TITLE "Steaming"
PERFORMER "Willem Breuker Kollektief"
INDEX 00 08:22:57
FILE "02. Steaming.wav" WAVE
INDEX 01 00:00:00
TRACK 03 AUDIO
TITLE "Sensemaya"
PERFORMER "Willem Breuker Kollektief"
INDEX 00 06:39:48
FILE "03. Sensemaya.wav" WAVE
INDEX 01 00:00:00
TRACK 04 AUDIO
TITLE "The Typwriter"
PERFORMER "Willem Breuker Kollektief"
INDEX 00 07:13:62
FILE "04. The Typwriter.wav" WAVE
INDEX 01 00:00:00
FILE "05. Warsaw Concerto.wav" WAVE
TRACK 05 AUDIO
TITLE "Warsaw Concerto"
PERFORMER "Willem Breuker Kollektief"
INDEX 01 00:00:00
FILE "06. Oratorium.wav" WAVE
TRACK 06 AUDIO
TITLE "Oratorium"
PERFORMER "Willem Breuker Kollektief"
INDEX 01 00:00:00
FILE "07. Rumba.wav" WAVE
TRACK 07 AUDIO
TITLE "Rumba"
PERFORMER "Willem Breuker Kollektief"
INDEX 01 00:00:00
FILE "08. Sprechgesang.wav" WAVE
TRACK 08 AUDIO
TITLE "Sprechgesang"
PERFORMER "Willem Breuker Kollektief"
INDEX 01 00:00:00
FILE "09. Als de hele werelnd je vergaat.wav" WAVE
TRACK 09 AUDIO
TITLE "Als de hele werelnd je vergaat"
PERFORMER "Willem Breuker Kollektief"
INDEX 01 00:00:00
TRACK 10 AUDIO
TITLE "Song of Mandalay"
PERFORMER "Willem Breuker Kollektief"
INDEX 00 01:43:47
FILE "10. Song of Mandalay.wav" WAVE
INDEX 01 00:00:00
TRACK 11 AUDIO
TITLE "My Ship"
PERFORMER "Willem Breuker Kollektief"
INDEX 00 03:54:40
FILE "11. My Ship.wav" WAVE
INDEX 01 00:00:00
FILE "12. Diep in mijn hart.wav" WAVE
TRACK 12 AUDIO
TITLE "Diep in mijn hart"
PERFORMER "Willem Breuker Kollektief"
INDEX 01 00:00:00
TRACK 13 AUDIO
TITLE "Pakkepappen 4"
PERFORMER "Willem Breuker Kollektief"
INDEX 00 03:58:52
FILE "13. Pakkepappen 4.wav" WAVE
INDEX 01 00:00:00
FILE "14. Hap Sap (but not from Jaffa).wav" WAVE
TRACK 14 AUDIO
TITLE "Hap Sap (but not from Jaffa)"
PERFORMER "Willem Breuker Kollektief"
INDEX 01 00:00:00
FILE "15. I want to Be Happy.wav" WAVE
TRACK 15 AUDIO
TITLE "I want to Be Happy"
PERFORMER "Willem Breuker Kollektief"
INDEX 01 00:00:00
 
Состав
Pino Minafra - Liner Notes
Boy Raaymakers - Trumpet, Ukulele, Vocals, Violin, Compilation, Photography
Ronald Snijders - Flute
Willem van Manen Trombone
Maarten van Norden - Sax (Soprano), Sax (Tenor)
Rob Verdurmen - Organ, Percussion, Drums, Horn, Vocals, Bells, Tympani (Timpani), Photography, Barrel Drum
Aimee Versloot - Viola
Jan Wolff - Percussion, French Horn, Horn
John McLean - Photography
Bert Noglik - Liner Notes
Frans Schellekens - Photography
Jean Buzelin - Liner Notes
Julian Coco - Guitar
Michiel De Ruyter - Clarinet
Otto Sill - Photography
Andre Goudbeek - Clarinet, Bandoneon, Vocals, Guitar, Violin, Clarinet (Bass), Viola, Sax (Alto)
Pieter Boersma - Photography
Gérard Rouy - Photography
Loes Luca - Vocals
Konrad Böhmer - Liner Notes
Chris Abelen - Trombone, Mouth Organ
Leugenachtig Lekker - Design
Jan Pier Brands - Photography
Bob van Dantzig - Photography
Ad Klink - Viola
Eduard van Regteren Atlena - Cello
Maarten Brouwer - Compilation, Photography
Wim Riemens - Photography
Susanna Von Canon - Compilation
Vera Beths - Violin
Reinbert de Leeuw - Piano
Jean van Lingen - Photography
Erik Kromhout - Violin
Wieke Meyer - Cello
Jan Schoonenberg - Viola
Alison Wallace - Violin
Lorre Trytten - Violin, Arranger, Compilation, Singing Saw
Peter Barkema - Clarinet, Sax (Bass), Sax (Tenor), Wind Synthesizer, Vocals, Sax (Soprano), Sax (Baritone), Harmonica, Recorder
Henk de Wit - Bassoon
John Prins - Photography
Gregg Moore - Banjo, Trombone, Vocals
Vincent Youmans - Composer
Alex Coke - Flute, Piccolo, Vocals, Whistle (Instrument), Sax (Tenor), Kazoo, Harmonica, Flute (Bass)
Andy Altenfelder - Trumpet, Recorder, Photography
Leon Bosch - Clarinet
Irving Caesar - Composer
Leo Cuypers - Piano, Vocals
Henk DeJonge - Synthesizer, Piano, Accordion, Arranger, Celeste, Rhythm Box, Hawaiian Guitar, Bells, Xylophone, Voices, Marimba, Glockenspiel, Bongos
Bob Driessen - Clarinet, Sax (Alto), Sax (Bass)
Mort Garson - Composer
Ira Gershwin - Composer
Arjen Gorter - Bass, Drums (Bass), Triangle, Compilation
Bob Hilliard - Composer
Peter Horn - Photography
Bernard Hunnekink - Trombone, Tuba, Vocals, Zither, Mouth Organ
Kurt Weill - Composer
Willem Breuker – Composer
Any questions -> support@pro-jazz.com. По всем вопросам пишите -> support@pro-jazz.com
05:31
158
Нет комментариев. Ваш будет первым!