Вы используете незарегистрированную версию компонента "Вкладки"!

Поиск

(Avant-Garde Jazz, Free Improvisation) Alex Cline, Jeff Gauthier, G.E. Stinson - Right Of Violet - 1996, FLAC (tracks+.cue), lossless

(Avant-Garde Jazz, Free Improvisation) Alex Cline, Jeff Gauthier, G.E. Stinson - Right Of Violet - 1996, FLAC (tracks+.cue), lossless
Треклист:
Alex Cline, Jeff Gauthier, G.E. Stinson / Right Of Violet
Жанр: Avant-Garde Jazz, Free Improvisation
Страна-производитель диска: US
Год издания: 1996
Издатель (лейбл): 9 Winds
Номер по каталогу: NWCD-0184
Страна: US
Аудиокодек: FLAC (*.flac)
Тип рипа: tracks+.cue
Битрейт аудио: lossless
Продолжительность: 75:49
Источник (релизер): свой фирменный диск
Наличие сканов в содержимом раздачи: нет
Треклист:
1 An Elegy Of Waves 18:36
2 Trod 6:07
3 Stroll On A Wire 4:07
4 Map Denial 4:31
5 Sophia 9:07
6 Build A Road 11:25
7 Micro I - Make Squid 2:07
8 Micro II - Memories Of Electrocution 2:35
9 The Room 10:37
10 Waiting For Rain 5:57
 
Лог создания рипа
Exact Audio Copy V1.0 beta 2 from 29. April 2011
EAC extraction logfile from 16. November 2012, 22:18
Alex Cline, Jeff Gauthier, G. E. Stinson / Right Of Violet
Used drive : PIONEER DVD-RW DVR-115D Adapter: 0 ID: 0
Read mode : Secure
Utilize accurate stream : Yes
Defeat audio cache : Yes
Make use of C2 pointers : No
Read offset correction : 48
Overread into Lead-In and Lead-Out : No
Fill up missing offset samples with silence : Yes
Delete leading and trailing silent blocks : No
Null samples used in CRC calculations : Yes
Used interface : Installed external ASPI interface
Gap handling : Appended to previous track
Used output format : User Defined Encoder
Selected bitrate : 896 kBit/s
Quality : High
Add ID3 tag : No
Command line compressor : C:\Program Files\Exact Audio Copy\FLAC\FLAC.EXE
Additional command line options : -6 -V -T "ARTIST=%artist%" -T "TITLE=%title%" -T "ALBUM=%albumtitle%" -T "DATE=%year%" -T "TRACKNUMBER=%tracknr%" -T "GENRE=%genre%" -T "COMMENT=%comment%" -T "BAND=%albuminterpret%" -T "COMPOSER=%composer%" %haslyrics%--ta
TOC of the extracted CD
Track | Start | Length | Start sector | End sector
---------------------------------------------------------
1 | 0:00.40 | 18:37.10 | 40 | 83824
2 | 18:37.50 | 6:12.42 | 83825 | 111766
3 | 24:50.17 | 4:12.65 | 111767 | 130731
4 | 29:03.07 | 4:36.13 | 130732 | 151444
5 | 33:39.20 | 9:12.37 | 151445 | 192881
6 | 42:51.57 | 11:29.45 | 192882 | 244601
7 | 54:21.27 | 2:08.48 | 244602 | 254249
8 | 56:30.00 | 2:40.70 | 254250 | 266319
9 | 59:10.70 | 10:40.70 | 266320 | 314389
10 | 69:51.65 | 5:58.42 | 314390 | 341281
Track 1
Filename D:\zzz\01 - An Elegy of Waves.wav
Pre-gap length 0:00:02.40
Peak level 99.0 %
Extraction speed 5.9 X
Track quality 99.9 %
Test CRC 001B8BA6
Copy CRC 001B8BA6
Accurately ripped (confidence 2) [2248756E] (AR v1)
Copy OK
Track 2
Filename D:\zzz\02 - Trod.wav
Peak level 99.0 %
Extraction speed 6.9 X
Track quality 100.0 %
Test CRC 76BBBE1B
Copy CRC 76BBBE1B
Accurately ripped (confidence 2) [C3338ECD] (AR v1)
Copy OK
Track 3
Filename D:\zzz\03 - Stroll on a Wire.wav
Pre-gap length 0:00:04.32
Peak level 99.0 %
Extraction speed 7.0 X
Track quality 100.0 %
Test CRC 49F7D65F
Copy CRC 49F7D65F
Accurately ripped (confidence 2) [C6C55C1F] (AR v1)
Copy OK
Track 4
Filename D:\zzz\04 - Map Denial.wav
Pre-gap length 0:00:04.47
Peak level 99.0 %
Extraction speed 7.3 X
Track quality 100.0 %
Test CRC 786B09D5
Copy CRC 786B09D5
Accurately ripped (confidence 2) [5D77220B] (AR v1)
Copy OK
Track 5
Filename D:\zzz\05 - Sophia.wav
Pre-gap length 0:00:03.52
Peak level 99.0 %
Extraction speed 8.2 X
Track quality 100.0 %
Test CRC A43869D2
Copy CRC A43869D2
Accurately ripped (confidence 2) [D5376D7C] (AR v1)
Copy OK
Track 6
Filename D:\zzz\06 - Build a Road.wav
Pre-gap length 0:00:04.17
Peak level 98.6 %
Extraction speed 8.9 X
Track quality 100.0 %
Test CRC EEC912A1
Copy CRC EEC912A1
Accurately ripped (confidence 2) [8300DC65] (AR v1)
Copy OK
Track 7
Filename D:\zzz\07 - Micro I - Make Squid.wav
Pre-gap length 0:00:03.72
Peak level 87.6 %
Extraction speed 7.6 X
Track quality 100.0 %
Test CRC 5C1965B3
Copy CRC 5C1965B3
Accurately ripped (confidence 2) [96790658] (AR v1)
Copy OK
Track 8
Filename D:\zzz\08 - Micro II - Memories of Electrocution.wav
Peak level 81.6 %
Extraction speed 8.0 X
Track quality 100.0 %
Test CRC 7686078F
Copy CRC 7686078F
Accurately ripped (confidence 2) [96EE5BF3] (AR v1)
Copy OK
Track 9
Filename D:\zzz\09 - The Room.wav
Pre-gap length 0:00:04.32
Peak level 90.5 %
Extraction speed 9.7 X
Track quality 100.0 %
Test CRC 4F145AEF
Copy CRC 4F145AEF
Accurately ripped (confidence 2) [38E06E28] (AR v1)
Copy OK
Track 10
Filename D:\zzz\10 - Waiting for Rain.wav
Pre-gap length 0:00:02.65
Peak level 83.1 %
Extraction speed 1.2 X
Track quality 99.9 %
Test CRC 006192DB
Copy CRC 006192DB
Track not present in AccurateRip database
Copy OK
9 track(s) accurately ripped
1 track(s) not present in the AccurateRip database
Some tracks could not be verified as accurate
No errors occurred
End of status report
==== Log checksum CBA73756F73C85D109FD716B7C46648A5C4D01F1B2C4588F44C6ECF96920FEEF ====
 
Содержание индексной карты (.CUE)
REM GENRE Avantgarde
REM DATE 1996
REM DISCID 8411C60A
REM COMMENT "ExactAudioCopy v1.0b2"
PERFORMER "Alex Cline, Jeff Gauthier, G. E. Stinson"
TITLE "Right Of Violet"
FILE "01 - An Elegy of Waves.wav" WAVE
TRACK 01 AUDIO
TITLE "An Elegy of Waves"
PERFORMER "Alex Cline, Jeff Gauthier, G. E. Stinson"
PREGAP 00:00:40
INDEX 01 00:00:00
FILE "02 - Trod.wav" WAVE
TRACK 02 AUDIO
TITLE "Trod"
PERFORMER "Alex Cline, Jeff Gauthier, G. E. Stinson"
INDEX 01 00:00:00
TRACK 03 AUDIO
TITLE "Stroll on a Wire"
PERFORMER "Alex Cline, Jeff Gauthier, G. E. Stinson"
INDEX 00 06:08:10
FILE "03 - Stroll on a Wire.wav" WAVE
INDEX 01 00:00:00
TRACK 04 AUDIO
TITLE "Map Denial"
PERFORMER "Alex Cline, Jeff Gauthier, G. E. Stinson"
INDEX 00 04:08:18
FILE "04 - Map Denial.wav" WAVE
INDEX 01 00:00:00
TRACK 05 AUDIO
TITLE "Sophia"
PERFORMER "Alex Cline, Jeff Gauthier, G. E. Stinson"
INDEX 00 04:32:36
FILE "05 - Sophia.wav" WAVE
INDEX 01 00:00:00
TRACK 06 AUDIO
TITLE "Build a Road"
PERFORMER "Alex Cline, Jeff Gauthier, G. E. Stinson"
INDEX 00 09:08:20
FILE "06 - Build a Road.wav" WAVE
INDEX 01 00:00:00
TRACK 07 AUDIO
TITLE "Micro I - Make Squid"
PERFORMER "Alex Cline, Jeff Gauthier, G. E. Stinson"
INDEX 00 11:25:48
FILE "07 - Micro I - Make Squid.wav" WAVE
INDEX 01 00:00:00
FILE "08 - Micro II - Memories of Electrocution.wav" WAVE
TRACK 08 AUDIO
TITLE "Micro II - Memories of Electrocution"
PERFORMER "Alex Cline, Jeff Gauthier, G. E. Stinson"
INDEX 01 00:00:00
TRACK 09 AUDIO
TITLE "The Room"
PERFORMER "Alex Cline, Jeff Gauthier, G. E. Stinson"
INDEX 00 02:36:38
FILE "09 - The Room.wav" WAVE
INDEX 01 00:00:00
TRACK 10 AUDIO
TITLE "Waiting for Rain"
PERFORMER "Alex Cline, Jeff Gauthier, G. E. Stinson"
INDEX 00 10:38:05
FILE "10 - Waiting for Rain.wav" WAVE
INDEX 01 00:00:00
 
Лог проверки качества
d:\>d:\aucdtect -d/-m0 d:\zzz\*.wav
auCDtect: CD records authenticity detector, version 0.8.2
Copyright (c) 2004 Oleg Berngardt. All rights reserved.
Copyright (c) 2004 Alexander Djourik. All rights reserved.
------------------------------------------------------------
Processing file: [01. An Elegy of Waves.wav]
------------------------------------------------------------
This track looks like CDDA with probability 100%
------------------------------------------------------------
Processing file: [02. Trod.wav]
------------------------------------------------------------
This track looks like CDDA with probability 100%
------------------------------------------------------------
Processing file: [03. Stroll on a Wire.wav]
------------------------------------------------------------
This track looks like CDDA with probability 100%
------------------------------------------------------------
Processing file: [04. Map Denial.wav]
------------------------------------------------------------
This track looks like CDDA with probability 99%
------------------------------------------------------------
Processing file: [05. Sophia.wav]
------------------------------------------------------------
This track looks like CDDA with probability 100%
------------------------------------------------------------
Processing file: [06. Build a Road.wav]
------------------------------------------------------------
This track looks like CDDA with probability 100%
------------------------------------------------------------
Processing file: [07. Micro I - Make Squid.wav]
------------------------------------------------------------
This track looks like CDDA with probability 100%
------------------------------------------------------------
Processing file: [08. Micro II - Memories of Electrocution.wav]
------------------------------------------------------------
This track looks like CDDA with probability 100%
------------------------------------------------------------
Processing file: [09. The Room.wav]
------------------------------------------------------------
This track looks like CDDA with probability 100%
------------------------------------------------------------
Processing file: [10. Waiting for Rain.wav]
------------------------------------------------------------
This track looks like CDDA with probability 100%
------------------------------------------------------------
Final Conclusion:
------------------------------------------------------------
These tracks looks like CDDA with probability 100%
Доп. информация:
 
AMG Review
Here is one of the ultimate American white boy improv records. No academic noodling here, no Euro doublespeak about musical languages and the elasticity of the moment, just out and out tonal and timbral exploration without any goal: "Let's see where we can go." Percussionist Alex Cline has been messing about a lot with the formlessness of tone, and the naturally occurring architecture that timbral experimentation can produce. With violinist Jeff Gauthier and G.E. Stinson's various stringed instruments (like electric guitars tuned all funky, mbiras, and odd sonic elements), one would think listeners had entered the outer sphere of sonic expression. But the music here is quiet and purposeful; it seeks its own level against silence and the other instruments in the fold, not against the music itself. While there are ten tracks listed as dividing moments, none of these could ever be repeated again -- particularly the first half of the 18-minute "An Elegy of Waves," which opens the album. Who could believe that such a subtle, quiet washing of microtones could create such a dense, white-knuckle atmospheric ride? And then there's "Build a Road," which should have been titled "Build a Rocket Ship" for all its striving to do just that. This is stargazing music, not only in its reach, but also as an aesthetic: Where the stars are not attained, they are realized in the internal body of the music created. This is inner-body music, which nourishes the mind as well. This album is made with a collective pure heart, and therefore shines with the quiet power of an ensemble whose members intuitively know themselves and their pursuit only insofar as they are committed to engage it.
 
Состав
Electric Guitar, Kalimba [Mbiras], Effects [Implements] – G.E. Stinson
Percussion – Alex Cline
Violin [Electric] – Jeff Gauthier
Any questions -> support@pro-jazz.com. По всем вопросам пишите -> support@pro-jazz.com
05:33
133
Нет комментариев. Ваш будет первым!