Вы используете незарегистрированную версию компонента "Вкладки"!

Поиск

(Free Jazz, Avant-Garde Jazz) Bobby Previte's Empty Suits - Slay The Suitors - 1994, FLAC (tracks+.cue), lossless

(Free Jazz, Avant-Garde Jazz) Bobby Previte's Empty Suits - Slay The Suitors - 1994, FLAC (tracks+.cue), lossless
Треклист:
Bobby Previte's Empty Suits / Slay The Suitors
Жанр: Free Jazz, Avant-Garde Jazz
Страна-производитель диска: Japan
Год издания: 1994
Издатель (лейбл): Avant
Номер по каталогу: Avan 036
Страна: US
Аудиокодек: FLAC (*.flac)
Тип рипа: tracks+.cue
Битрейт аудио: lossless
Продолжительность: 54:17
Источник (релизер): свой фирменный диск
Наличие сканов в содержимом раздачи: нет
Треклист:
1 Fantasy And Nocturne 16:15
2 Waltz 13:39
3 Canon 9:41
4 Prelude And Elegy 14:32
 
Лог создания рипа
Exact Audio Copy V1.0 beta 2 from 29. April 2011
EAC extraction logfile from 16. November 2012, 21:46
Bobby Previte's Empty Suits / Slay The Suitors
Used drive : PIONEER DVD-RW DVR-115D Adapter: 0 ID: 0
Read mode : Secure
Utilize accurate stream : Yes
Defeat audio cache : Yes
Make use of C2 pointers : No
Read offset correction : 48
Overread into Lead-In and Lead-Out : No
Fill up missing offset samples with silence : Yes
Delete leading and trailing silent blocks : No
Null samples used in CRC calculations : Yes
Used interface : Installed external ASPI interface
Gap handling : Appended to previous track
Used output format : User Defined Encoder
Selected bitrate : 896 kBit/s
Quality : High
Add ID3 tag : No
Command line compressor : C:\Program Files\Exact Audio Copy\FLAC\FLAC.EXE
Additional command line options : -6 -V -T "ARTIST=%artist%" -T "TITLE=%title%" -T "ALBUM=%albumtitle%" -T "DATE=%year%" -T "TRACKNUMBER=%tracknr%" -T "GENRE=%genre%" -T "COMMENT=%comment%" -T "BAND=%albuminterpret%" -T "COMPOSER=%composer%" %haslyrics%--ta
TOC of the extracted CD
Track | Start | Length | Start sector | End sector
---------------------------------------------------------
1 | 0:00.00 | 16:19.55 | 0 | 73479
2 | 16:19.55 | 13:41.27 | 73480 | 135081
3 | 30:01.07 | 9:45.58 | 135082 | 179014
4 | 39:46.65 | 14:30.27 | 179015 | 244291
Track 1
Filename D:\zzz\01 - Fantasy and Nocturne.wav
Pre-gap length 0:00:02.00
Peak level 77.3 %
Extraction speed 5.3 X
Track quality 99.9 %
Test CRC CB096B80
Copy CRC CB096B80
Cannot be verified as accurate (confidence 4) [C8C6322F], AccurateRip returned [6BD28353] (AR v2)
Copy OK
Track 2
Filename D:\zzz\02 - Waltz.wav
Pre-gap length 0:00:06.08
Peak level 100.0 %
Extraction speed 6.6 X
Track quality 99.9 %
Test CRC 28D2B9C1
Copy CRC 28D2B9C1
Cannot be verified as accurate (confidence 3) [8B15C7A9], AccurateRip returned [F77A7A29] (AR v2)
Copy OK
Track 3
Filename D:\zzz\03 - Canon.wav
Pre-gap length 0:00:01.32
Peak level 80.7 %
Extraction speed 7.6 X
Track quality 100.0 %
Test CRC 7A6136B1
Copy CRC 7A6136B1
Cannot be verified as accurate (confidence 4) [8129D826], AccurateRip returned [9BE3DF7B] (AR v2)
Copy OK
Track 4
Filename D:\zzz\04 - Prelude and Elegy.wav
Pre-gap length 0:00:01.43
Peak level 97.6 %
Extraction speed 8.5 X
Track quality 100.0 %
Test CRC FC86FBE5
Copy CRC FC86FBE5
Cannot be verified as accurate (confidence 4) [1DBC1719], AccurateRip returned [A64097AC] (AR v2)
Copy OK
No tracks could be verified as accurate
You may have a different pressing from the one(s) in the database
No errors occurred
End of status report
==== Log checksum 3D60299F796EF013BDF295C7FCFE9B744AA6CFD9DE2E608A3DC01C8AA7137BFD ====
 
Содержание индексной карты (.CUE)
REM GENRE "Contemporary Jazz"
REM DATE 1994
REM DISCID 350CB904
REM COMMENT "ExactAudioCopy v1.0b2"
PERFORMER "Bobby Previte's Empty Suits"
TITLE "Slay The Suitors"
FILE "01 - Fantasy and Nocturne.wav" WAVE
TRACK 01 AUDIO
TITLE "Fantasy and Nocturne"
PERFORMER "Bobby Previte's Empty Suits"
INDEX 01 00:00:00
TRACK 02 AUDIO
TITLE "Waltz"
PERFORMER "Bobby Previte's Empty Suits"
INDEX 00 16:13:47
FILE "02 - Waltz.wav" WAVE
INDEX 01 00:00:00
TRACK 03 AUDIO
TITLE "Canon"
PERFORMER "Bobby Previte's Empty Suits"
INDEX 00 13:39:70
FILE "03 - Canon.wav" WAVE
INDEX 01 00:00:00
TRACK 04 AUDIO
TITLE "Prelude and Elegy"
PERFORMER "Bobby Previte's Empty Suits"
INDEX 00 09:44:15
FILE "04 - Prelude and Elegy.wav" WAVE
INDEX 01 00:00:00
 
Лог проверки качества
d:\>d:\aucdtect -d/-m0 d:\zzz\*.wav
auCDtect: CD records authenticity detector, version 0.8.2
Copyright (c) 2004 Oleg Berngardt. All rights reserved.
Copyright (c) 2004 Alexander Djourik. All rights reserved.
------------------------------------------------------------
Processing file: [01. Fantasy and Nocturne.wav]
------------------------------------------------------------
This track looks like CDDA with probability 100%
------------------------------------------------------------
Processing file: [02. Waltz.wav]
------------------------------------------------------------
This track looks like CDDA with probability 100%
------------------------------------------------------------
Processing file: [03. Canon.wav]
------------------------------------------------------------
This track looks like CDDA with probability 100%
------------------------------------------------------------
Processing file: [04. Prelude and Elegy.wav]
------------------------------------------------------------
This track looks like CDDA with probability 100%
------------------------------------------------------------
Final Conclusion:
------------------------------------------------------------
These tracks looks like CDDA with probability 100%
Доп. информация:
 
AMG Review
Slay the Suitors, on the Japanese Avant label, is one of the hardest-edged recordings in Bobby Previte's catalog as a bandleader. While Previte's work has always been edgy and adventurous, the sheer joy he gets from drumming gives his music an exuberant energy and tends -- for the most part -- to hold darker influences at bay. (His ominous 1987 soundtrack recording Dull Bang, Gushing Sound, Human Shriek is a notable exception.) Some of Previte's most upbeat compositions were found on the 1990 Gramavision album Empty Suits, credited to his ensemble of the same name that recorded Slay the Suitors in 1993. Previte, trombonist Robin Eubanks, keyboardist Steve Gaboury, and guitarist/bassist Jerome Harris are present on both Empty Suits CDs, but in many ways the two CDs couldn't be farther apart. On Slay the Suitors, Previte has largely abandoned the world fusion elements of the preceding Empty Suits, taken away the guest musicians, and eliminated any overdubbing in favor of a live in-studio recording. Even with Wayne Horvitz joining Gaboury on keyboards and Roger Squitero on percussion, the band now has a stripped-down immediacy and rougher sound, which is reinforced by Slay the Suitors' more loosely improvisational and unruly music. The Herbert Read quote on the CD cover, the controversial cover art (which reportedly led Gramavision to drop plans for releasing the CD), the Slay the Suitors title, and of course the music itself all take metaphorical aim at classicism in the arts -- so one assumes that the classical-sounding titles of the four compositions here are intended as a touch of irony. All the pieces are longer than anything on the band's Gramavision release, and all take their time to coalesce. "Fantasy and Nocturne" begins quietly with a spare piano melody that is quickly overtaken by a fusion-flavored theme from the full band; the piece then slides into pulse-driven territory filled with skronky instrumental voicings that slip, slide, and collide in cacophonous glee. Spacious passages follow, featuring experimental sonics that circle, skitter, and drone around the anchor of a slow and deliberate piano, before the band pulls back together for a coda that dramatically restates the initial theme. "Waltz" begins with keyboard atmospherics, but by its conclusion has become a ferocious frontal assault of snare-smacking, power chord-crunching metal-meets-prog in triple time; King Crimson's "Red" sounds timid by comparison. "Canon" also takes its time, as melodic trombone, guitar, and keyboard phrases are separated by pauses that let synthesized undercurrents rise to the fore. A brief world fusion-tinged jam -- approaching the spirit of the first Empty Suits CD -- concludes the piece, featuring stellar piano work that should delight fans of harmonically adventurous yet groove-based post-bop. The final composition, "Prelude and Elegy," begins with over five minutes of moody solo piano, sketching chords and lines that dissipate into silence, before the rhythm section and electric keys enter, walking a line between free funk and an acoustic piano trio (a truce of sorts is declared as the band unites beneath a lovely trombone solo that quotes "Stranger in Paradise," ending the CD on a somewhat unexpected note of lyricism). On the whole, Slay the Suitors is a shake-up, wake-up call to arms in which Bobby Previte faults classicism for not only stifling the artistic impulse, but also for running hand-in-hand with deeply entrenched, even violent forces of oppression. With this theme to guide him on Slay the Suitors, Previte is absolutely at his most uncompromising, and the resulting music -- like the CD cover -- is right on target.
 
Состав
Drums, Producer – Bobby Previte
Guitar, Guitar [Acoustic Bass] – Jerome Harris
Organ [Hammond], Keyboards, Piano – Wayne Horvitz
Percussion – Roger Squitero
Piano, Keyboards, Bass [Keyboard] – Steve Gaboury
Producer – Mark Helias
Trombone, Electronics – Robin Eubanks
Any questions -> support@pro-jazz.com. По всем вопросам пишите -> support@pro-jazz.com
05:33
140
Нет комментариев. Ваш будет первым!