Вы используете незарегистрированную версию компонента "Вкладки"!

Поиск

(Free Jazz, Contemporary Jazz, Free Improvisation) Riccardo Luppi, Stefano Battaglia, Paolino Dalla Porta, Anthony Moreno - Mnemosine - 2000, FLAC (image+.cue), lossless

(Free Jazz, Contemporary Jazz, Free Improvisation) Riccardo Luppi, Stefano Battaglia, Paolino Dalla Porta, Anthony Moreno - Mnemosine - 2000, FLAC (image+.cue), lossless
Треклист:
Riccardo Luppi, Stefano Battaglia, Paolino Dalla Porta, Anthony Moreno / Mnemosine
Жанр: Free Jazz, Contemporary Jazz, Free Improvisation
Страна-производитель диска: Italy
Год издания: 2000
Издатель (лейбл): Dischi Della Quercia
Номер по каталогу: 128030-2
Аудиокодек: FLAC (*.flac)
Тип рипа: image+.cue
Битрейт аудио: lossless
Продолжительность: 54:59
Источник (релизер): cd
Наличие сканов в содержимом раздачи: нет
Треклист:
1 Tetragramma 7:43
2 Mnemosine 4:15
3 Lemuri 4:05
4 Musa 3:31
5 Argilla 3:08
6 Animazione 2:22
7 Alto Canto 3:22
8 Pan Ku 4:19
9 Consequenze 17:00
10 Le Moire 3:47
11 Tallo 1:25
 
Лог создания рипа
Exact Audio Copy V1.0 beta 2 from 29. April 2011
EAC extraction logfile from 14. November 2012, 11:42
Riccardo Luppi, Stefano Battaglia, Paolino Dalla Porta, Anthony Moreno / Mnemosine
Used drive : Optiarc DVD RW AD-7170A Adapter: 0 ID: 0
Read mode : Secure
Utilize accurate stream : Yes
Defeat audio cache : Yes
Make use of C2 pointers : No
Read offset correction : 48
Overread into Lead-In and Lead-Out : No
Fill up missing offset samples with silence : Yes
Delete leading and trailing silent blocks : No
Null samples used in CRC calculations : Yes
Used interface : Native Win32 interface for Win NT & 2000
Used output format : User Defined Encoder
Selected bitrate : 320 kBit/s
Quality : High
Add ID3 tag : No
Command line compressor : C:\Program Files\Exact Audio Copy\Flac\flac.exe
Additional command line options : -V -8 -T "Date=%year%" -T "Genre=%genre%" %source%
TOC of the extracted CD
Track | Start | Length | Start sector | End sector
---------------------------------------------------------
1 | 0:00.00 | 7:41.20 | 0 | 34594
2 | 7:41.20 | 4:15.60 | 34595 | 53779
3 | 11:57.05 | 4:04.72 | 53780 | 72151
4 | 16:02.02 | 3:31.50 | 72152 | 88026
5 | 19:33.52 | 3:08.08 | 88027 | 102134
6 | 22:41.60 | 2:22.72 | 102135 | 112856
7 | 25:04.57 | 3:22.23 | 112857 | 128029
8 | 28:27.05 | 4:19.10 | 128030 | 147464
9 | 32:46.15 | 17:00.27 | 147465 | 223991
10 | 49:46.42 | 3:47.03 | 223992 | 241019
11 | 53:33.45 | 1:26.15 | 241020 | 247484
Range status and errors
Selected range
Filename K:\ЕАС\Riccardo Luppi, Stefano Battaglia, Paolino Dalla Porta, Anthony Moreno - Mnemosine.wav
Peak level 99.9 %
Extraction speed 4.8 X
Range quality 100.0 %
Test CRC E2557705
Copy CRC E2557705
Copy OK
No errors occurred
AccurateRip summary
Track 1 not present in database
Track 2 not present in database
Track 3 not present in database
Track 4 not present in database
Track 5 not present in database
Track 6 not present in database
Track 7 not present in database
Track 8 not present in database
Track 9 not present in database
Track 10 not present in database
Track 11 not present in database
None of the tracks are present in the AccurateRip database
End of status report
==== Log checksum B1F8F17583C647EF55ED78F48C451DDBB3B6C07D85F99AF59EB9E09D289DF90F ====
 
Содержание индексной карты (.CUE)
REM GENRE Jazz
REM DATE 2000
REM DISCID A90CE30B
REM COMMENT "ExactAudioCopy v1.0b2"
CATALOG 00<8<1:06226<
PERFORMER "Riccardo Luppi, Stefano Battaglia, Paolino Dalla Porta, Anthony Moreno"
TITLE "Mnemosine"
FILE "Riccardo Luppi, Stefano Battaglia, Paolino Dalla Porta, Anthony Moreno - Mnemosine.flac" WAVE
TRACK 01 AUDIO
TITLE "Tetragramma "
PERFORMER "Riccardo Luppi, Stefano Battaglia, Paolino Dalla Porta, Anthony Moreno"
ISRC 000000000000
INDEX 01 00:00:00
TRACK 02 AUDIO
TITLE " Mnemosine"
PERFORMER "Riccardo Luppi, Stefano Battaglia, Paolino Dalla Porta, Anthony Moreno"
ISRC 000000000000
INDEX 01 07:41:20
TRACK 03 AUDIO
TITLE " Lemuri"
PERFORMER "Riccardo Luppi, Stefano Battaglia, Paolino Dalla Porta, Anthony Moreno"
ISRC 000000000000
INDEX 01 11:57:05
TRACK 04 AUDIO
TITLE " Musa "
PERFORMER "Riccardo Luppi, Stefano Battaglia, Paolino Dalla Porta, Anthony Moreno"
ISRC 000000000000
INDEX 01 16:02:02
TRACK 05 AUDIO
TITLE "Argilla "
PERFORMER "Riccardo Luppi, Stefano Battaglia, Paolino Dalla Porta, Anthony Moreno"
ISRC 000000000000
INDEX 01 19:33:52
TRACK 06 AUDIO
TITLE " Animazione "
PERFORMER "Riccardo Luppi, Stefano Battaglia, Paolino Dalla Porta, Anthony Moreno"
ISRC 000000000000
INDEX 01 22:41:60
TRACK 07 AUDIO
TITLE " Alto Canto "
PERFORMER "Riccardo Luppi, Stefano Battaglia, Paolino Dalla Porta, Anthony Moreno"
ISRC 000000000000
INDEX 01 25:04:57
TRACK 08 AUDIO
TITLE "Pan Ku"
PERFORMER "Riccardo Luppi, Stefano Battaglia, Paolino Dalla Porta, Anthony Moreno"
ISRC 000000000000
INDEX 01 28:27:05
TRACK 09 AUDIO
TITLE " Consequenze"
PERFORMER "Riccardo Luppi, Stefano Battaglia, Paolino Dalla Porta, Anthony Moreno"
ISRC 000000000000
INDEX 01 32:46:15
TRACK 10 AUDIO
TITLE " Le Moire"
PERFORMER "Riccardo Luppi, Stefano Battaglia, Paolino Dalla Porta, Anthony Moreno"
ISRC 000000000000
INDEX 01 49:46:42
TRACK 11 AUDIO
TITLE " Tallo "
PERFORMER "Riccardo Luppi, Stefano Battaglia, Paolino Dalla Porta, Anthony Moreno"
ISRC 000000000000
INDEX 01 53:33:45
Доп. информация: Recorded April, 1998 at Tala Recording Studio, Milano
 
Состав
Alto Saxophone – Riccardo Luppi (tracks: 7)
Baritone Saxophone – Riccardo Luppi (tracks: 9, 11)
Clarinet – Riccardo Luppi (tracks: 9)
Double Bass – Paolino Dalla Porta
Drums – Anthony Moreno
Flute – Riccardo Luppi (tracks: 6, 8)
Flute [Bolivian Bamboo] – Riccardo Luppi (tracks: 9)
Flute [G] – Riccardo Luppi (tracks: 2, 9, 10)
Flute [Japanese Bamboo] – Riccardo Luppi (tracks: 5)
Piano – Stefano Battaglia
Piccolo Flute – Riccardo Luppi (tracks: 1, 9)
Soprano Saxophone – Riccardo Luppi (tracks: 1, 3)
Tenor Saxophone – Riccardo Luppi (tracks: 1, 4)
Any questions -> support@pro-jazz.com. По всем вопросам пишите -> support@pro-jazz.com
05:29
151
Нет комментариев. Ваш будет первым!