Вы используете незарегистрированную версию компонента "Вкладки"!

Поиск

(Free Jazz, Free Improvisation) Paulo Curado e d Lugar da Desordem (Ken Filiano, Bruno Pedroso) - The bird, the breeze and Mr. Filiano - 2008, FLAC (tracks+.cue) lossless

(Free Jazz, Free Improvisation) Paulo Curado e d Lugar da Desordem (Ken Filiano, Bruno Pedroso) - The bird, the breeze and Mr. Filiano - 2008, FLAC (tracks+.cue) lossless
Треклист:
Paulo Curado e d Lugar da Desordem / The bird, the breeze and Mr. Filiano
Жанр: Free Jazz, Free Improvisation
Страна-производитель диска: Португалия
Год издания диска: 2008
Издатель (лейбл): Clean Feed
Номер по каталогу: CF113
Страна: Португалия, США
Аудио кодек: FLAC (*.flac)
Тип рипа: tracks+.cue
Битрейт аудио: lossless
Продолжительность: 56:33
Источник (релизер): другой трекер (iwals)
Наличие сканов в содержимом раздачи: да
Треклист:
1. Tríptico part I
2. Novos Mundos para o João (Tríptico part III)
3. Villages (The Vanguard and All)
5. Ouros e Talhas
6. The Breeze
7. Escondidas
8. Pequenos Duendes
9. As If
10. Tríptico part II (The Bird)
11. Por Fim Assim
12. Tempos Difíceis
recorded October 30, 2006 at QM Studioaudio, Grio (Gaia), Portugal
 
Лог создания рипа
Exact Audio Copy V0.99 prebeta 4 from 23. January 2008
EAC extraction logfile from 18. January 2009, 19:09
Paulo Curado e d Lugar da Desordem / The bird, the breeze and Mr. Filiano
Used drive : HL-DT-STBDDVDRW GGC-H20L Adapter: 1 ID: 0
Read mode : Secure
Utilize accurate stream : Yes
Defeat audio cache : Yes
Make use of C2 pointers : No
Read offset correction : 667
Overread into Lead-In and Lead-Out : No
Fill up missing offset samples with silence : Yes
Delete leading and trailing silent blocks : No
Null samples used in CRC calculations : Yes
Used interface : Native Win32 interface for Win NT & 2000
Gap handling : Appended to previous track
Used output format : User Defined Encoder
Selected bitrate : 128 kBit/s
Quality : High
Add ID3 tag : No
Command line compressor : C:\Program Files\FLAC\flac.exe
Additional command line options : -8 -V -T "ARTIST=%a" -T "TITLE=%t" -T "ALBUM=%g" -T "DATE=%y" -T "TRACKNUMBER=%n" -T "GENRE=%m" -T "COMMENT=EAC FLAC -8" %s
TOC of the extracted CD
Track | Start | Length | Start sector | End sector
---------------------------------------------------------
1 | 0:00.00 | 2:15.15 | 0 | 10139
2 | 2:15.15 | 6:04.11 | 10140 | 37450
3 | 8:19.26 | 13:40.04 | 37451 | 98954
4 | 21:59.30 | 3:55.08 | 98955 | 116587
5 | 25:54.38 | 3:41.05 | 116588 | 133167
6 | 29:35.43 | 4:15.38 | 133168 | 152330
7 | 33:51.06 | 3:30.46 | 152331 | 168126
8 | 37:21.52 | 4:32.33 | 168127 | 188559
9 | 41:54.10 | 1:50.00 | 188560 | 196809
10 | 43:44.10 | 8:33.34 | 196810 | 235318
11 | 52:17.44 | 4:15.68 | 235319 | 254511
Track 1
Filename E:\New Rip\Paulo Curado e d Lugar da Desordem - The bird, the breeze and Mr. Filiano\01 - Triptico part I.wav
Pre-gap length 0:00:02.00
Peak level 99.3 %
Track quality 100.0 %
Test CRC AEA377DD
Copy CRC AEA377DD
Track not present in AccurateRip database
Copy OK
Track 2
Filename E:\New Rip\Paulo Curado e d Lugar da Desordem - The bird, the breeze and Mr. Filiano\02 - Novos Mundos para o Joao (Triptico part III).wav
Pre-gap length 0:00:03.00
Peak level 98.9 %
Track quality 100.0 %
Test CRC 618BB606
Copy CRC 618BB606
Track not present in AccurateRip database
Copy OK
Track 3
Filename E:\New Rip\Paulo Curado e d Lugar da Desordem - The bird, the breeze and Mr. Filiano\03 - Villages (The Vanguard and All).wav
Pre-gap length 0:00:03.00
Peak level 99.4 %
Track quality 100.0 %
Test CRC 0C54ED1C
Copy CRC 0C54ED1C
Track not present in AccurateRip database
Copy OK
Track 4
Filename E:\New Rip\Paulo Curado e d Lugar da Desordem - The bird, the breeze and Mr. Filiano\04 - Ouros e Talhas.wav
Pre-gap length 0:00:03.00
Peak level 94.4 %
Track quality 99.9 %
Test CRC D79D9CB2
Copy CRC D79D9CB2
Track not present in AccurateRip database
Copy OK
Track 5
Filename E:\New Rip\Paulo Curado e d Lugar da Desordem - The bird, the breeze and Mr. Filiano\05 - The Breeze.wav
Pre-gap length 0:00:03.00
Peak level 99.4 %
Track quality 100.0 %
Test CRC 131D7916
Copy CRC 131D7916
Track not present in AccurateRip database
Copy OK
Track 6
Filename E:\New Rip\Paulo Curado e d Lugar da Desordem - The bird, the breeze and Mr. Filiano\06 - Escondidas.wav
Pre-gap length 0:00:03.00
Peak level 99.2 %
Track quality 100.0 %
Test CRC E31697A6
Copy CRC E31697A6
Track not present in AccurateRip database
Copy OK
Track 7
Filename E:\New Rip\Paulo Curado e d Lugar da Desordem - The bird, the breeze and Mr. Filiano\07 - Pequenos Duendes.wav
Pre-gap length 0:00:03.00
Peak level 99.3 %
Track quality 100.0 %
Test CRC C0BA52BC
Copy CRC C0BA52BC
Track not present in AccurateRip database
Copy OK
Track 8
Filename E:\New Rip\Paulo Curado e d Lugar da Desordem - The bird, the breeze and Mr. Filiano\08 - As If.wav
Pre-gap length 0:00:03.00
Peak level 99.4 %
Track quality 100.0 %
Test CRC 23D437B8
Copy CRC 23D437B8
Track not present in AccurateRip database
Copy OK
Track 9
Filename E:\New Rip\Paulo Curado e d Lugar da Desordem - The bird, the breeze and Mr. Filiano\09 - Triptico part II (The Bird).wav
Pre-gap length 0:00:03.00
Peak level 86.3 %
Track quality 100.0 %
Test CRC 1198FC5E
Copy CRC 1198FC5E
Track not present in AccurateRip database
Copy OK
Track 10
Filename E:\New Rip\Paulo Curado e d Lugar da Desordem - The bird, the breeze and Mr. Filiano\10 - Por Fim Assim.wav
Pre-gap length 0:00:03.00
Peak level 99.4 %
Track quality 100.0 %
Test CRC 6A5767DD
Copy CRC 6A5767DD
Track not present in AccurateRip database
Copy OK
Track 11
Filename E:\New Rip\Paulo Curado e d Lugar da Desordem - The bird, the breeze and Mr. Filiano\11 - Tempos Dificeis.wav
Pre-gap length 0:00:03.00
Peak level 99.4 %
Track quality 100.0 %
Test CRC B07DD8BF
Copy CRC B07DD8BF
Track not present in AccurateRip database
Copy OK
None of the tracks are present in the AccurateRip database
No errors occurred
End of status report
 
Содержание индексной карты (.CUE)
REM GENRE Jazz
REM DATE 2008
REM DISCID 820D410B
REM COMMENT "ExactAudioCopy v0.99pb4"
PERFORMER "Paulo Curado e d Lugar da Desordem"
TITLE "The bird, the breeze and Mr. Filiano"
FILE "01 - Triptico part I.wav" WAVE
TRACK 01 AUDIO
TITLE "Triptico part I"
PERFORMER "Paulo Curado e d Lugar da Desordem"
INDEX 01 00:00:00
TRACK 02 AUDIO
TITLE "Novos Mundos para o Joao (Triptico part III)"
PERFORMER "Paulo Curado e d Lugar da Desordem"
INDEX 00 02:12:15
FILE "02 - Novos Mundos para o Joao (Triptico part III).wav" WAVE
INDEX 01 00:00:00
TRACK 03 AUDIO
TITLE " Villages (The Vanguard and All)"
PERFORMER "Paulo Curado e d Lugar da Desordem"
INDEX 00 06:01:11
FILE "03 - Villages (The Vanguard and All).wav" WAVE
INDEX 01 00:00:00
TRACK 04 AUDIO
TITLE "Ouros e Talhas"
PERFORMER "Paulo Curado e d Lugar da Desordem"
INDEX 00 13:37:04
FILE "04 - Ouros e Talhas.wav" WAVE
INDEX 01 00:00:00
TRACK 05 AUDIO
TITLE "The Breeze"
PERFORMER "Paulo Curado e d Lugar da Desordem"
INDEX 00 03:52:08
FILE "05 - The Breeze.wav" WAVE
INDEX 01 00:00:00
TRACK 06 AUDIO
TITLE "Escondidas"
PERFORMER "Paulo Curado e d Lugar da Desordem"
INDEX 00 03:38:05
FILE "06 - Escondidas.wav" WAVE
INDEX 01 00:00:00
TRACK 07 AUDIO
TITLE "Pequenos Duendes"
PERFORMER "Paulo Curado e d Lugar da Desordem"
INDEX 00 04:12:38
FILE "07 - Pequenos Duendes.wav" WAVE
INDEX 01 00:00:00
TRACK 08 AUDIO
TITLE "As If"
PERFORMER "Paulo Curado e d Lugar da Desordem"
INDEX 00 03:27:46
FILE "08 - As If.wav" WAVE
INDEX 01 00:00:00
TRACK 09 AUDIO
TITLE "Triptico part II (The Bird)"
PERFORMER "Paulo Curado e d Lugar da Desordem"
INDEX 00 04:29:33
FILE "09 - Triptico part II (The Bird).wav" WAVE
INDEX 01 00:00:00
TRACK 10 AUDIO
TITLE "Por Fim Assim"
PERFORMER "Paulo Curado e d Lugar da Desordem"
INDEX 00 01:47:00
FILE "10 - Por Fim Assim.wav" WAVE
INDEX 01 00:00:00
TRACK 11 AUDIO
TITLE "Tempos Dificeis "
PERFORMER "Paulo Curado e d Lugar da Desordem"
INDEX 00 08:30:34
FILE "11 - Tempos Dificeis.wav" WAVE
INDEX 01 00:00:00
 
Лог проверки качества
AUDIOCHECKER v2.0 beta (build 457) - by Dester - opdester@freemail.hu
~~~~~~~~~~~~~~~~~~~~~~~~~~~~~~~~~~
-=== DO NOT EDIT THIS FILE! ===-
Path: ...\Paulo Curado e d Lugar da Desordem - The bird, the breeze and Mr. Filiano (2008) [FLAC]
01 -=- 01 - Triptico part I.flac -=- CDDA (100%)
02 -=- 02 - Novos Mundos para o Joao (Triptico part III).flac -=- CDDA (100%)
03 -=- 03 - Villages (The Vanguard and All).flac -=- CDDA (100%)
04 -=- 04 - Ouros e Talhas.flac -=- CDDA (99%)
05 -=- 05 - The Breeze.flac -=- CDDA (100%)
06 -=- 06 - Escondidas.flac -=- CDDA (100%)
07 -=- 07 - Pequenos Duendes.flac -=- CDDA (100%)
08 -=- 08 - As If.flac -=- CDDA (100%)
09 -=- 09 - Triptico part II (The Bird).flac -=- CDDA (99%)
10 -=- 10 - Por Fim Assim.flac -=- CDDA (100%)
11 -=- 11 - Tempos Dificeis.flac -=- CDDA (100%)
Summary 99,82% CDDA
19077060
 
Состав
Paulo Curado alto saxophone, flute
Ken Filiano double bass
Bruno Pedroso drums
Any questions -> support@pro-jazz.com. По всем вопросам пишите -> support@pro-jazz.com
08:50
147
Нет комментариев. Ваш будет первым!