Вы используете незарегистрированную версию компонента "Вкладки"!

Поиск

(Contemporary Jazz) Claudio Puntin & Gerdur Gunnarsdottir - Ylir - 2001, FLAC (tracks+.cue) lossless

Треклист:
Claudio Puntin & Gerður Gunnarsdóttir / Ýlir
Жанр: Contemporary Jazz
Страна-производитель диска: Germany
Год издания диска: 2001
Издатель (лейбл): ECM
Номер по каталогу: 1749
Страна: Switzerland
Аудио кодек: FLAC (*.flac)
Тип рипа: tracks+.cue
Битрейт аудио: lossless
Продолжительность: 52:40
Источник (релизер): NoNaMe/mishka1981
Наличие сканов в содержимом раздачи: да
Треклист:
1. Ýlir
2. Huldufólk I, II
3. Einbúinn
4. Enginn lái öðrum frekt
5. Skerpla
6. Peysireið
7. Vorbankar
8. Hvert örstutt spor
9. Sofðu unga ástin min
10. Huldufólk III
11. L'ultimo abbraccio
12. Kvæðið um fuglana
13. Leysing
14. Epilogue
 
Лог создания рипа
Exact Audio Copy V0.99 prebeta 3 from 28. July 2007
EAC extraction logfile from 16. February 2011, 14:16
Claudio Puntin & Gerdur Gunnarsdottir / Ylir
Used drive : _NEC DVD_RW ND-3540A Adapter: 2 ID: 0
Read mode : Secure
Utilize accurate stream : Yes
Defeat audio cache : Yes
Make use of C2 pointers : No
Read offset correction : 48
Overread into Lead-In and Lead-Out : No
Fill up missing offset samples with silence : Yes
Delete leading and trailing silent blocks : No
Null samples used in CRC calculations : Yes
Used interface : Installed external ASPI interface
Gap handling : Appended to previous track
Used output format : User Defined Encoder
Selected bitrate : 896 kBit/s
Quality : High
Add ID3 tag : No
Command line compressor : C:\Program Files\Exact Audio Copy\FLAC\FLAC.EXE
Additional command line options : -6 -V -T "ARTIST=%a" -T "TITLE=%t" -T "ALBUM=%g" -T "DATE=%y" -T "TRACKNUMBER=%n" -T "GENRE=%m" -T "COMMENT=%e" %s -o %d
TOC of the extracted CD
Track | Start | Length | Start sector | End sector
---------------------------------------------------------
1 | 0:00.00 | 4:01.28 | 0 | 18102
2 | 4:01.28 | 5:15.60 | 18103 | 41787
3 | 9:17.13 | 4:57.42 | 41788 | 64104
4 | 14:14.55 | 0:49.05 | 64105 | 67784
5 | 15:03.60 | 2:49.13 | 67785 | 80472
6 | 17:52.73 | 6:17.65 | 80473 | 108812
7 | 24:10.63 | 3:33.39 | 108813 | 124826
8 | 27:44.27 | 4:20.16 | 124827 | 144342
9 | 32:04.43 | 4:17.15 | 144343 | 163632
10 | 36:21.58 | 2:39.10 | 163633 | 175567
11 | 39:00.68 | 3:12.61 | 175568 | 190028
12 | 42:13.54 | 3:08.14 | 190029 | 204142
13 | 45:21.68 | 5:21.15 | 204143 | 228232
14 | 50:43.08 | 1:57.62 | 228233 | 237069
Track 1
Filename C:\MY RIPS\01 - ylir.wav
Pre-gap length 0:00:02.00
Peak level 53.3 %
Track quality 100.0 %
Test CRC 20EC7F87
Copy CRC 20EC7F87
Accurately ripped (confidence 5) [12309C3C]
Copy OK
Track 2
Filename C:\MY RIPS\02 - huldefolk I & II.wav
Peak level 59.9 %
Track quality 99.9 %
Test CRC 49575694
Copy CRC 49575694
Accurately ripped (confidence 5) [237D965C]
Copy OK
Track 3
Filename C:\MY RIPS\03 - einbuinn.wav
Pre-gap length 0:00:04.13
Peak level 50.7 %
Track quality 100.0 %
Test CRC 6757C680
Copy CRC 6757C680
Accurately ripped (confidence 5) [84FA5C21]
Copy OK
Track 4
Filename C:\MY RIPS\04 - enginn lai odrum frekt.wav
Pre-gap length 0:00:05.67
Peak level 22.7 %
Track quality 100.0 %
Test CRC 1485AFEE
Copy CRC 1485AFEE
Accurately ripped (confidence 5) [3733E0B8]
Copy OK
Track 5
Filename C:\MY RIPS\05 - skerpia.wav
Peak level 48.4 %
Track quality 100.0 %
Test CRC 4D7C7E77
Copy CRC 4D7C7E77
Accurately ripped (confidence 5) [FC74E201]
Copy OK
Track 6
Filename C:\MY RIPS\06 - peisereid.wav
Pre-gap length 0:00:05.55
Peak level 99.9 %
Track quality 99.9 %
Test CRC 44941AA7
Copy CRC 44941AA7
Accurately ripped (confidence 5) [2EB38C3A]
Copy OK
Track 7
Filename C:\MY RIPS\07 - varpanker.wav
Pre-gap length 0:00:04.38
Peak level 48.4 %
Track quality 99.9 %
Test CRC B2B761FA
Copy CRC B2B761FA
Accurately ripped (confidence 5) [B3A2D2C2]
Copy OK
Track 8
Filename C:\MY RIPS\08 - hvert orstutt spor.wav
Pre-gap length 0:00:05.38
Peak level 85.6 %
Track quality 100.0 %
Test CRC C46A0FE2
Copy CRC C46A0FE2
Accurately ripped (confidence 5) [E554BDF3]
Copy OK
Track 9
Filename C:\MY RIPS\09 - sofdu unga astin min.wav
Pre-gap length 0:00:04.05
Peak level 43.2 %
Track quality 100.0 %
Test CRC AA512129
Copy CRC AA512129
Accurately ripped (confidence 5) [6F7FDEDA]
Copy OK
Track 10
Filename C:\MY RIPS\10 - huldoful III.wav
Pre-gap length 0:00:04.00
Peak level 100.0 %
Track quality 100.0 %
Test CRC 7E1432CF
Copy CRC 7E1432CF
Accurately ripped (confidence 5) [CBCC5D71]
Copy OK
Track 11
Filename C:\MY RIPS\11 - l'ultimo abbracio.wav
Pre-gap length 0:00:06.18
Peak level 83.7 %
Track quality 100.0 %
Test CRC 81650970
Copy CRC 81650970
Accurately ripped (confidence 5) [7E5D147F]
Copy OK
Track 12
Filename C:\MY RIPS\12 - kvaudid um fugiana.wav
Pre-gap length 0:00:04.41
Peak level 27.1 %
Track quality 100.0 %
Test CRC C956505F
Copy CRC C956505F
Accurately ripped (confidence 5) [211EF913]
Copy OK
Track 13
Filename C:\MY RIPS\13 - leysing.wav
Pre-gap length 0:00:04.18
Peak level 57.4 %
Track quality 100.0 %
Test CRC 85E3661E
Copy CRC 85E3661E
Accurately ripped (confidence 5) [41B5B9C3]
Copy OK
Track 14
Filename C:\MY RIPS\14 - epilogue.wav
Pre-gap length 0:00:02.08
Peak level 29.3 %
Track quality 100.0 %
Test CRC 8C9ED384
Copy CRC 8C9ED384
Accurately ripped (confidence 5) [AA1688C2]
Copy OK
All tracks accurately ripped
No errors occurred
End of status report
 
Содержание индексной карты (.CUE)
REM GENRE Jazz
REM DATE 2001
REM DISCID BE0C580E
REM COMMENT "ExactAudioCopy v0.99pb3"
PERFORMER "Claudio Puntin & Gerdur Gunnarsdottir"
TITLE "Ylir"
FILE "01 - ylir.wav" WAVE
TRACK 01 AUDIO
TITLE "ylir"
PERFORMER "Claudio Puntin & Gerdur Gunnarsdottir"
INDEX 01 00:00:00
FILE "02 - huldefolk I & II.wav" WAVE
TRACK 02 AUDIO
TITLE "huldefolk I & II"
PERFORMER "Claudio Puntin & Gerdur Gunnarsdottir"
INDEX 01 00:00:00
TRACK 03 AUDIO
TITLE "einbuinn"
PERFORMER "Claudio Puntin & Gerdur Gunnarsdottir"
INDEX 00 05:11:47
FILE "03 - einbuinn.wav" WAVE
INDEX 01 00:00:00
TRACK 04 AUDIO
TITLE "enginn lai odrum frekt"
PERFORMER "Claudio Puntin & Gerdur Gunnarsdottir"
INDEX 00 04:51:50
FILE "04 - enginn lai odrum frekt.wav" WAVE
INDEX 01 00:00:00
FILE "05 - skerpia.wav" WAVE
TRACK 05 AUDIO
TITLE "skerpia"
PERFORMER "Claudio Puntin & Gerdur Gunnarsdottir"
INDEX 01 00:00:00
TRACK 06 AUDIO
TITLE "peisereid"
PERFORMER "Claudio Puntin & Gerdur Gunnarsdottir"
INDEX 00 02:43:33
FILE "06 - peisereid.wav" WAVE
INDEX 01 00:00:00
TRACK 07 AUDIO
TITLE "varpanker"
PERFORMER "Claudio Puntin & Gerdur Gunnarsdottir"
INDEX 00 06:13:27
FILE "07 - varpanker.wav" WAVE
INDEX 01 00:00:00
TRACK 08 AUDIO
TITLE "hvert orstutt spor"
PERFORMER "Claudio Puntin & Gerdur Gunnarsdottir"
INDEX 00 03:28:01
FILE "08 - hvert orstutt spor.wav" WAVE
INDEX 01 00:00:00
TRACK 09 AUDIO
TITLE "sofdu unga astin min"
PERFORMER "Claudio Puntin & Gerdur Gunnarsdottir"
INDEX 00 04:16:11
FILE "09 - sofdu unga astin min.wav" WAVE
INDEX 01 00:00:00
TRACK 10 AUDIO
TITLE "huldoful III"
PERFORMER "Claudio Puntin & Gerdur Gunnarsdottir"
INDEX 00 04:13:15
FILE "10 - huldoful III.wav" WAVE
INDEX 01 00:00:00
TRACK 11 AUDIO
TITLE "l'ultimo abbracio"
PERFORMER "Claudio Puntin & Gerdur Gunnarsdottir"
INDEX 00 02:32:67
FILE "11 - l'ultimo abbracio.wav" WAVE
INDEX 01 00:00:00
TRACK 12 AUDIO
TITLE "kvaudid um fugiana"
PERFORMER "Claudio Puntin & Gerdur Gunnarsdottir"
INDEX 00 03:08:20
FILE "12 - kvaudid um fugiana.wav" WAVE
INDEX 01 00:00:00
TRACK 13 AUDIO
TITLE "leysing"
PERFORMER "Claudio Puntin & Gerdur Gunnarsdottir"
INDEX 00 03:03:71
FILE "13 - leysing.wav" WAVE
INDEX 01 00:00:00
TRACK 14 AUDIO
TITLE "epilogue"
PERFORMER "Claudio Puntin & Gerdur Gunnarsdottir"
INDEX 00 05:19:07
FILE "14 - epilogue.wav" WAVE
INDEX 01 00:00:00
 
Состав
Claudio Puntin - clarinet, bass clarinet
Gerður Gunnarsdóttir - violin, vocal
На замену "сомнительному" рипу.
Any questions -> support@pro-jazz.com. По всем вопросам пишите -> support@pro-jazz.com
08:50
131
Нет комментариев. Ваш будет первым!