Вы используете незарегистрированную версию компонента "Вкладки"!

Поиск

(Avant-Garde, Free Jazz) Anthony Braxton - Creative Orchestra Music 1976 - 1987, APE (tracks+.cue) lossless

Треклист:
Anthony Braxton / Creative Orchestra Music 1976
Жанр: Avant-Garde, Free Jazz
Год издания диска: 1987
Издатель (лейбл): RCA
Номер по каталогу: ND86579
Аудио кодек: APE (*.ape)
Тип рипа: tracks+.cue
Битрейт аудио: lossless
Продолжительность: 40:16
Источник (релизер): avax (basa005)
Наличие сканов в содержимом раздачи: да
Треклист:
A1 Cut One 5:10
A2 Cut Two 7:36
A3 Cut Three 6:43
B1 Cut One 6:26
B2 Cut Two 7:19
B3 Cut Three 6:40
 
Лог создания рипа
Exact Audio Copy V0.99 prebeta 4 from 23. January 2008
EAC extraction logfile from 2. February 2011, 14:43
Antony Braxton / Creative Orchestra Music 1976
Used drive : ATAPI DVD A DH16A1L Adapter: 1 ID: 0
Read mode : Secure
Utilize accurate stream : Yes
Defeat audio cache : Yes
Make use of C2 pointers : No
Read offset correction : 6
Overread into Lead-In and Lead-Out : No
Fill up missing offset samples with silence : Yes
Delete leading and trailing silent blocks : No
Null samples used in CRC calculations : Yes
Used interface : Native Win32 interface for Win NT & 2000
Used output format : Internal WAV Routines
Sample format : 44.100 Hz; 16 Bit; Stereo
TOC of the extracted CD
Track | Start | Length | Start sector | End sector
---------------------------------------------------------
1 | 0:00.00 | 5:15.60 | 0 | 23684
2 | 5:15.60 | 7:39.10 | 23685 | 58119
3 | 12:54.70 | 6:48.02 | 58120 | 88721
4 | 19:42.72 | 6:28.68 | 88722 | 117889
5 | 26:11.65 | 7:23.37 | 117890 | 151151
6 | 33:35.27 | 6:40.73 | 151152 | 181224
Range status and errors
Selected range
Filename C:\avaxhome\Antony Braxton - Creative Orchestra Music 1976.wav
Peak level 79.6 %
Range quality 100.0 %
Copy CRC 697B60E6
Copy OK
No errors occurred
AccurateRip summary
Track 1 accurately ripped (confidence 1) [B430548B]
Track 2 accurately ripped (confidence 1) [422C30F5]
Track 3 accurately ripped (confidence 1) [B8C3AFFE]
Track 4 accurately ripped (confidence 1) [98910349]
Track 5 accurately ripped (confidence 1) [23DCFCA3]
Track 6 accurately ripped (confidence 1) [ED599F65]
All tracks accurately ripped
End of status report
 
Содержание индексной карты (.CUE)
REM GENRE Free Jazz
REM DATE 1976
REM DISCID 49097006
REM COMMENT ExactAudioCopy v0.99pb4
PERFORMER "Antony Braxton"
TITLE "Creative Orchestra Music 1976"
FILE "Antony Braxton - Creative Orchestra Music 1976.ape" WAVE
TRACK 01 AUDIO
TITLE "Piece One"
INDEX 01 00:00:00
TRACK 02 AUDIO
TITLE "Piece Two"
INDEX 00 05:12:68
INDEX 01 05:15:60
TRACK 03 AUDIO
TITLE "PieceThree"
INDEX 00 12:52:25
INDEX 01 12:54:70
TRACK 04 AUDIO
TITLE "Piece Four"
INDEX 00 19:40:57
INDEX 01 19:42:72
TRACK 05 AUDIO
TITLE "Piece Five"
INDEX 00 26:11:06
INDEX 01 26:11:65
TRACK 06 AUDIO
TITLE "Piece Six"
INDEX 00 33:32:48
INDEX 01 33:35:27
 
Об альбоме (сборнике)
This is one of Braxton's most interesting recordings. Six of his compositions are performed by groups ranging from 15-20 pieces and featuring such soloists as trumpeters Cecil Bridgewater, Leo Smith, Kenny Wheeler and Jon Faddis, baritonist Bruce Johnstone, trombonist George Lewis, reed player Roscoe Mitchell, bassist Dave Holland, pianist Muhal Richard Abrams and Braxton himself. There is a lot of variety on this set. One of the pieces finds Braxton combining free elements with a Sousa-type march while another one looks toward Ellington. There are quite a few memorable moments on this program. by Scott Yanow
 
Состав
Anthony Braxton: composer, conductor;
Dwight Andrews: flute, clarinet, bass clarinet, soprano and tenor saxophones;
Marty Ehrlich: flute, clarinet, sopranino, alto and baritone saxophones;
Vinny Golia: piccolo, bass clarinet, tenor and baritone saxophones;
J.D. Parran: flute, clarinet, nagaswaram, tenor saxophone;
Ned Rothenberg: flute, ocarina, bass clarinet, alto saxophone;
Rob Howard: trumpet;
Michael Mossman: trumpet;
Leo Smith: trumpet;
Kenny Wheeler: flugelhorn, trumpet;
George Lewis: trombone;
James King Roosa: trombone;
Ray Anderson: trombone, tuba;
Marilyn Crispell: piano;
Birgin Taubhorn: accordion;
Bobby Naughton: vibraphone;
James Emery: electric guitar;
John Lindberg: bass;
Brian Smith: bass;
Thurman Barker: percussion, marimba;
Bob Ostertag: Serge synthesizer.
Any questions -> support@pro-jazz.com. По всем вопросам пишите -> support@pro-jazz.com
08:49
165
Нет комментариев. Ваш будет первым!