Вы используете незарегистрированную версию компонента "Вкладки"!

Поиск

(Free Jazz) Angles (Magnus Broo, Mats Aleklint, Martin Kuchen, Mattias Stahl, Johan Berthling, Kjell Nordeson) - Every Woman Is A Tree - 2008, FLAC (tracks+.cue) lossless

(Free Jazz) Angles (Magnus Broo, Mats Aleklint, Martin Kuchen, Mattias Stahl, Johan Berthling, Kjell Nordeson) - Every Woman Is A Tree - 2008, FLAC (tracks+.cue) lossless
Треклист:
Angles / Every Woman Is A Tree
Жанр: Free Jazz
Страна-производитель диска: Португалия
Год издания диска: 2008
Издатель (лейбл): Clean Feed
Номер по каталогу: CF112
Страна: Швеция
Аудио кодек: FLAC (*.flac)
Тип рипа: tracks+.cue
Битрейт аудио: lossless
Продолжительность: 59:01
Источник (релизер): другой трекер (iwals)
Наличие сканов в содержимом раздачи: да
Треклист:
1. Peace is not for us
2. Don't ruin me
3. My world of mines
4. Every woman is a tree
5. The indispensable warlords
6. Let's talk about the weather (and not about the war)
recorded on the 2nd of march 2007 live at ugglan, stockholm by swedish jazz radio p2
 
Лог создания рипа
Exact Audio Copy V0.99 prebeta 4 from 23. January 2008
EAC extraction logfile from 14. February 2009, 18:59
Angles / Every Woman Is A Tree
Used drive : HL-DT-STBDDVDRW GGC-H20L Adapter: 1 ID: 0
Read mode : Secure
Utilize accurate stream : Yes
Defeat audio cache : Yes
Make use of C2 pointers : No
Read offset correction : 667
Overread into Lead-In and Lead-Out : No
Fill up missing offset samples with silence : Yes
Delete leading and trailing silent blocks : No
Null samples used in CRC calculations : Yes
Used interface : Native Win32 interface for Win NT & 2000
Gap handling : Appended to previous track
Used output format : User Defined Encoder
Selected bitrate : 128 kBit/s
Quality : High
Add ID3 tag : No
Command line compressor : C:\Program Files (x86)\FLAC\flac.exe
Additional command line options : -V -8 -T "artist=%a" -T "title=%t" -T "album=%g" -T "date=%y" -T "tracknumber=%n" -T "genre=%m" %s
TOC of the extracted CD
Track | Start | Length | Start sector | End sector
---------------------------------------------------------
1 | 0:00.00 | 11:08.23 | 0 | 50122
2 | 11:08.23 | 12:43.55 | 50123 | 107402
3 | 23:52.03 | 11:21.13 | 107403 | 158490
4 | 35:13.16 | 8:25.60 | 158491 | 196425
5 | 43:39.01 | 8:49.11 | 196426 | 236111
6 | 52:28.12 | 6:32.40 | 236112 | 265551
Track 1
Filename C:\Program Files (x86)\FLAC\01 - Peace Is Not For Us.wav
Pre-gap length 0:00:02.00
Peak level 99.4 %
Track quality 100.0 %
Test CRC E4580DB1
Copy CRC E4580DB1
Copy OK
Track 2
Filename C:\Program Files (x86)\FLAC\02 - Don't Ruin Me.wav
Peak level 99.4 %
Track quality 99.9 %
Test CRC 868A74C6
Copy CRC 868A74C6
Copy OK
Track 3
Filename C:\Program Files (x86)\FLAC\03 - My World Of Mines.wav
Peak level 99.4 %
Track quality 100.0 %
Test CRC 2DA42819
Copy CRC 2DA42819
Copy OK
Track 4
Filename C:\Program Files (x86)\FLAC\04 - Every woman Is A Tree.wav
Peak level 99.4 %
Track quality 100.0 %
Test CRC 63F2790F
Copy CRC 63F2790F
Copy OK
Track 5
Filename C:\Program Files (x86)\FLAC\05 - The Indespensable Warlords.wav
Peak level 99.4 %
Track quality 100.0 %
Test CRC F7C6D6FC
Copy CRC F7C6D6FC
Copy OK
Track 6
Filename C:\Program Files (x86)\FLAC\06 - Let's Talk About The Weather.wav
Peak level 99.4 %
Track quality 99.9 %
Test CRC 68422F6B
Copy CRC 68422F6B
Copy OK
No errors occurred
End of status report
 
Содержание индексной карты (.CUE)
REM GENRE Jazz
REM DATE 2008
REM DISCID 380DD406
REM COMMENT "ExactAudioCopy v0.99pb4"
PERFORMER "Angles"
TITLE "Every Woman Is A Tree"
FILE "01 - Peace Is Not For Us.wav" WAVE
TRACK 01 AUDIO
TITLE "Peace Is Not For Us"
PERFORMER "Angles"
INDEX 01 00:00:00
FILE "02 - Don't Ruin Me.wav" WAVE
TRACK 02 AUDIO
TITLE "Don't Ruin Me"
PERFORMER "Angles"
INDEX 01 00:00:00
FILE "03 - My World Of Mines.wav" WAVE
TRACK 03 AUDIO
TITLE "My World Of Mines"
PERFORMER "Angles"
INDEX 01 00:00:00
FILE "04 - Every woman Is A Tree.wav" WAVE
TRACK 04 AUDIO
TITLE "Every woman Is A Tree"
PERFORMER "Angles"
INDEX 01 00:00:00
FILE "05 - The Indespensable Warlords.wav" WAVE
TRACK 05 AUDIO
TITLE "The Indespensable Warlords"
PERFORMER "Angles"
INDEX 01 00:00:00
FILE "06 - Let's Talk About The Weather.wav" WAVE
TRACK 06 AUDIO
TITLE "Let's Talk About The Weather"
PERFORMER "Angles"
INDEX 01 00:00:00
 
Лог проверки качества
AUDIOCHECKER v2.0 beta (build 457) - by Dester - opdester@freemail.hu
~~~~~~~~~~~~~~~~~~~~~~~~~~~~~~~~~~
-=== DO NOT EDIT THIS FILE! ===-
Path: ...\Angles - Every Woman Is A Tree (2008) [FLAC]
1 -=- 01 - Peace Is Not For Us.flac -=- CDDA (100%)
2 -=- 02 - Don't Ruin Me.flac -=- CDDA (100%)
3 -=- 03 - My World Of Mines.flac -=- CDDA (100%)
4 -=- 04 - Every woman Is A Tree.flac -=- CDDA (76%)
5 -=- 05 - The Indespensable Warlords.flac -=- CDDA (100%)
6 -=- 06 - Let's Talk About The Weather.flac -=- CDDA (100%)
Summary 96,00% CDDA
227587204
 
Состав

Magnus Broo: trumpet
Mats Aleklint: trombone
Martin Kuchen: alto saxophone
Mattias Stahl: vibraphone
Johan Berthling: double bass
Kjell Nordeson: drums
По всем вопросам пишите личное сообщение пользователю M0p94ok.
08:51
136
Нет комментариев. Ваш будет первым!