Вы используете незарегистрированную версию компонента "Вкладки"!

Поиск

(Free Jazz, Free Improvisation) Jack Wright & Friends - Thaw - 1992, FLAC (tracks+.cue), lossless

(Free Jazz, Free Improvisation) Jack Wright & Friends - Thaw - 1992, FLAC (tracks+.cue), lossless
Треклист:
Jack Wright & Friends - Thaw
Жанр: Free Jazz, Free Improvisation
Страна-производитель диска: USA
Год издания: 1992
Издатель (лейбл): JW
Номер по каталогу: JW 002
Страна: USA
Аудиокодек: FLAC (*.flac)
Тип рипа: tracks+.cue
Битрейт аудио: lossless
Продолжительность: 1:15:06
Источник: собственный диск
Наличие сканов в содержимом раздачи: 600 dpi
1 Soprano Sax Solo
2 Trio I (with as)
3 Trio I (with ts)
4 Trio I (with ss)
5 Alto Sax Solo
6 Sextet (with ts)
7 Sextet (with as)
8 Sextet (with as)
9 Duo (ss) with Stan Nishimura, trombone
10 Trio II (with ts)
11 Trio II (with as)
12 Trio I (Jack On Piano)
 
Лог создания рипа
Exact Audio Copy V1.0 beta 3 from 29. August 2011
EAC extraction logfile from 2. June 2013, 11:28
Jack Wright & Friends / Thaw
Used drive : SlimtypeDVD A DS8A5SH Adapter: 0 ID: 1
Read mode : Secure
Utilize accurate stream : Yes
Defeat audio cache : Yes
Make use of C2 pointers : No
Read offset correction : 6
Overread into Lead-In and Lead-Out : No
Fill up missing offset samples with silence : Yes
Delete leading and trailing silent blocks : No
Null samples used in CRC calculations : Yes
Used interface : Native Win32 interface for Win NT & 2000
Gap handling : Appended to previous track
Used output format : User Defined Encoder
Selected bitrate : 128 kBit/s
Quality : High
Add ID3 tag : No
Command line compressor : C:\Program Files (x86)\Exact Audio Copy\Flac\flac.exe
Additional command line options : -V -8 -T "Genre=%genre%" -T "Artist=%artist%" -T "Title=%title%" -T "Album=%albumtitle%" -T "Date=%year%" -T "Tracknumber=%tracknr%" -T "Comment=%comment%" %source%
TOC of the extracted CD
Track | Start | Length | Start sector | End sector
---------------------------------------------------------
1 | 0:00.00 | 5:52.35 | 0 | 26434
2 | 5:52.35 | 3:14.00 | 26435 | 40984
3 | 9:06.35 | 2:01.40 | 40985 | 50099
4 | 11:08.00 | 4:06.50 | 50100 | 68599
5 | 15:14.50 | 6:37.02 | 68600 | 98376
6 | 21:51.52 | 6:33.63 | 98377 | 127914
7 | 28:25.40 | 6:50.20 | 127915 | 158684
8 | 35:15.60 | 4:22.57 | 158685 | 178391
9 | 39:38.42 | 11:00.45 | 178392 | 227936
10 | 50:39.12 | 9:51.03 | 227937 | 272264
11 | 60:30.15 | 7:16.15 | 272265 | 304979
12 | 67:46.30 | 7:24.60 | 304980 | 338339
Track 1
Filename D:\Thaw\01. Soprano Sax Solo.wav
Pre-gap length 0:00:02.00
Peak level 42.7 %
Extraction speed 1.3 X
Track quality 100.0 %
Test CRC 9F16D937
Copy CRC 9F16D937
Copy OK
Track 2
Filename D:\Thaw\02. Trio I (with as).wav
Pre-gap length 0:00:02.25
Peak level 95.3 %
Extraction speed 1.3 X
Track quality 100.0 %
Test CRC 4B8C004B
Copy CRC 4B8C004B
Copy OK
Track 3
Filename D:\Thaw\03. Trio I (with ts).wav
Pre-gap length 0:00:04.43
Peak level 79.1 %
Extraction speed 1.2 X
Track quality 100.0 %
Test CRC E4DD2926
Copy CRC E4DD2926
Copy OK
Track 4
Filename D:\Thaw\04. Trio I (with ss).wav
Pre-gap length 0:00:04.30
Peak level 46.2 %
Extraction speed 1.3 X
Track quality 99.9 %
Test CRC 2DD9441D
Copy CRC 2DD9441D
Copy OK
Track 5
Filename D:\Thaw\05. Alto Sax Solo.wav
Pre-gap length 0:00:02.40
Peak level 46.2 %
Extraction speed 1.7 X
Track quality 100.0 %
Test CRC 8E4AD82B
Copy CRC 8E4AD82B
Copy OK
Track 6
Filename D:\Thaw\06. Sextet (with ts).wav
Pre-gap length 0:00:02.70
Peak level 85.1 %
Extraction speed 1.9 X
Track quality 100.0 %
Test CRC 97213946
Copy CRC 97213946
Copy OK
Track 7
Filename D:\Thaw\07. Sextet (with as).wav
Pre-gap length 0:00:03.03
Peak level 46.5 %
Extraction speed 2.0 X
Track quality 100.0 %
Test CRC 2F92147B
Copy CRC 2F92147B
Copy OK
Track 8
Filename D:\Thaw\08. Sextet (with as).wav
Pre-gap length 0:00:02.28
Peak level 99.3 %
Extraction speed 2.0 X
Track quality 100.0 %
Test CRC 6EA5F7D9
Copy CRC 6EA5F7D9
Copy OK
Track 9
Filename D:\Thaw\09. Duo (ss) with Stan Nishimura, trombone.wav
Pre-gap length 0:00:04.07
Peak level 73.0 %
Extraction speed 2.3 X
Track quality 100.0 %
Test CRC 814E3C6B
Copy CRC 814E3C6B
Copy OK
Track 10
Filename D:\Thaw\10. Trio II (with ts).wav
Pre-gap length 0:00:01.50
Peak level 99.3 %
Extraction speed 2.5 X
Track quality 100.0 %
Test CRC 52682F4F
Copy CRC 52682F4F
Copy OK
Track 11
Filename D:\Thaw\11. Trio II (with as).wav
Pre-gap length 0:00:03.48
Peak level 83.3 %
Extraction speed 2.6 X
Track quality 100.0 %
Test CRC 9E9F38E1
Copy CRC 9E9F38E1
Copy OK
Track 12
Filename D:\Thaw\12. Trio I (Jack on piano).wav
Pre-gap length 0:00:03.03
Peak level 78.0 %
Extraction speed 2.7 X
Track quality 100.0 %
Test CRC 8B9C07DD
Copy CRC 8B9C07DD
Copy OK
No errors occurred
End of status report
==== Log checksum 20CA03A6E314FC006A4A6652173DEADD634990A467607F3B594AB36585502D80 ====
 
Содержание индексной карты (.CUE)
REM GENRE Avantgarde
REM DATE 1992
REM DISCID 93119F0C
REM COMMENT "ExactAudioCopy v1.0b3"
PERFORMER "Jack Wright & Friends"
TITLE "Thaw"
FILE "01. Soprano Sax Solo.wav" WAVE
TRACK 01 AUDIO
TITLE "Soprano Sax Solo"
PERFORMER "Jack Wright & Friends"
INDEX 01 00:00:00
TRACK 02 AUDIO
TITLE "Trio I (with as)"
PERFORMER "Jack Wright & Friends"
INDEX 00 05:50:10
FILE "02. Trio I (with as).wav" WAVE
INDEX 01 00:00:00
TRACK 03 AUDIO
TITLE "Trio I (with ts)"
PERFORMER "Jack Wright & Friends"
INDEX 00 03:09:32
FILE "03. Trio I (with ts).wav" WAVE
INDEX 01 00:00:00
TRACK 04 AUDIO
TITLE "Trio I (with ss)"
PERFORMER "Jack Wright & Friends"
INDEX 00 01:57:10
FILE "04. Trio I (with ss).wav" WAVE
INDEX 01 00:00:00
TRACK 05 AUDIO
TITLE "Alto Sax Solo"
PERFORMER "Jack Wright & Friends"
INDEX 00 04:04:10
FILE "05. Alto Sax Solo.wav" WAVE
INDEX 01 00:00:00
TRACK 06 AUDIO
TITLE "Sextet (with ts)"
PERFORMER "Jack Wright & Friends"
INDEX 00 06:34:07
FILE "06. Sextet (with ts).wav" WAVE
INDEX 01 00:00:00
TRACK 07 AUDIO
TITLE "Sextet (with as)"
PERFORMER "Jack Wright & Friends"
INDEX 00 06:30:60
FILE "07. Sextet (with as).wav" WAVE
INDEX 01 00:00:00
TRACK 08 AUDIO
TITLE "Sextet (with as)"
PERFORMER "Jack Wright & Friends"
INDEX 00 06:47:67
FILE "08. Sextet (with as).wav" WAVE
INDEX 01 00:00:00
TRACK 09 AUDIO
TITLE "Duo (ss) with Stan Nishimura, trombone"
PERFORMER "Jack Wright & Friends"
INDEX 00 04:18:50
FILE "09. Duo (ss) with Stan Nishimura, trombone.wav" WAVE
INDEX 01 00:00:00
TRACK 10 AUDIO
TITLE "Trio II (with ts)"
PERFORMER "Jack Wright & Friends"
INDEX 00 10:58:70
FILE "10. Trio II (with ts).wav" WAVE
INDEX 01 00:00:00
TRACK 11 AUDIO
TITLE "Trio II (with as)"
PERFORMER "Jack Wright & Friends"
INDEX 00 09:47:30
FILE "11. Trio II (with as).wav" WAVE
INDEX 01 00:00:00
TRACK 12 AUDIO
TITLE "Trio I (Jack on piano)"
PERFORMER "Jack Wright & Friends"
INDEX 00 07:13:12
FILE "12. Trio I (Jack on piano).wav" WAVE
INDEX 01 00:00:00
 
Состав
Jack Wright - alto sax (as), soprano sax (ss), tenor sax (ts), and piano.
Jack's friends include:
Bob Marsh - trio I (cello, piano), sextet (cello, flute, violin)
Murray Reams - trio I (drums), sextet (drums)
Terry Sines - trio II (acoustic bass)
Gordon Kennedy - trio II (drums)
Mike O'Neill - sextet (guitar)
Justin Perdue - sextet (guitar, trumpet)
Jeremy Harlos - sextet (acoustic bass)
По всем вопросам пишите личное сообщение пользователю M0p94ok.
15:22
192
Нет комментариев. Ваш будет первым!