Поиск

(Free Improvisation, NotTwo Records) Gebhard Ullmann Basement Research (Julian Arguelles, Steve Swell, John Hebert, Gerald Cleaver) - Don't Touch My Music Vol. 1 - 2008, FLAC (tracks+.cue), lossless

(Free Improvisation, NotTwo Records) Gebhard Ullmann Basement Research (Julian Arguelles, Steve Swell, John Hebert, Gerald Cleaver) - Don't Touch My Music Vol. 1 - 2008, FLAC (tracks+.cue), lossless
Треклист:
Gebhard Ullmann Basement Research / Don't Touch My Music Vol. 1
Жанр: Free Improvisation, NotTwo Records
Страна-производитель диска: Poland
Год издания: 2008
Издатель (лейбл): NotTwo Records
Номер по каталогу: MW 803-2
Аудиокодек: FLAC (*.flac)
Тип рипа: tracks+.cue
Битрейт аудио: lossless
Продолжительность: 48:40
Источник (релизер): Max Monteiro
Наличие сканов в содержимом раздачи: front + back + CD (Web)
Треклист:
1. Dreierlei (12:40)
2. Don’t Touch My Music (14:04)
3. Kleine Figuren No. 2 (9:15)
4. Kleine Figuren No. 3 (12:41)
All compositions by Gebhard Ullmann.
Recorded live in concert at Alchemia, Krakow on October 22, 2007.
Julian Argüelles – Soprano & Baritone Saxophones
Steve Swell – Trombone
Gebhard Ullmann – Bass Clarinet & Tenor Saxophone
John Hebert – Bass
Gerald Cleaver – Drums
 
Лог создания рипа
Exact Audio Copy V1.0 beta 3 from 29. August 2011
EAC extraction logfile from 25. June 2013, 13:26
Gebhard Ullmann Basement Research / Don't Touch My Music Vol.1
Used drive : SlimtypeeNAU508 5 Adapter: 1 ID: 0
Read mode : Secure
Utilize accurate stream : Yes
Defeat audio cache : Yes
Make use of C2 pointers : No
Read offset correction : 6
Overread into Lead-In and Lead-Out : No
Fill up missing offset samples with silence : Yes
Delete leading and trailing silent blocks : No
Null samples used in CRC calculations : Yes
Used interface : Native Win32 interface for Win NT & 2000
Gap handling : Appended to previous track
Used output format : User Defined Encoder
Selected bitrate : 768 kBit/s
Quality : High
Add ID3 tag : No
Command line compressor : C:\Program Files (x86)\Exact Audio Copy\Flac\flac.exe
Additional command line options : -8 -V -T "ARTIST=%artist%" -T "TITLE=%title%" -T "ALBUM=%albumtitle%" -T "DATE=%year%" -T "TRACKNUMBER=%tracknr%" -T "GENRE=%genre%" -T "PERFORMER=%albuminterpret%" -T "COMPOSER=%composer%" %haslyrics%--tag-from-file=LYRICS="%lyricsfile%"%haslyrics% -T "ALBUMARTIST=%albumartist%" -T "DISCNUMBER=%cdnumber%" -T "TOTALDISCS=%totalcds%" -T "TOTALTRACKS=%numtracks%" -T "COMMENT=%comment%" %source% -o %dest%
TOC of the extracted CD
Track | Start | Length | Start sector | End sector
---------------------------------------------------------
1 | 0:00.00 | 12:40.20 | 0 | 57019
2 | 12:40.20 | 14:04.12 | 57020 | 120331
3 | 26:44.32 | 9:14.66 | 120332 | 161947
4 | 35:59.23 | 12:40.66 | 161948 | 219013
Track 1
Filename C:\EAC rips\01 - Dreierlei.wav
Pre-gap length 0:00:02.00
Peak level 96.6 %
Extraction speed 2.4 X
Track quality 99.9 %
Test CRC 09EB0D68
Copy CRC 09EB0D68
Accurately ripped (confidence 2) [8A4F0F30] (AR v1)
Copy OK
Track 2
Filename C:\EAC rips\02 - Don't Touch My Music.wav
Peak level 96.6 %
Extraction speed 3.3 X
Track quality 100.0 %
Test CRC F5458630
Copy CRC F5458630
Accurately ripped (confidence 2) [276BB56D] (AR v1)
Copy OK
Track 3
Filename C:\EAC rips\03 - Kleine Figuren No. 2.wav
Peak level 96.6 %
Extraction speed 3.7 X
Track quality 100.0 %
Test CRC F234D921
Copy CRC F234D921
Accurately ripped (confidence 2) [C9CEFCAD] (AR v1)
Copy OK
Track 4
Filename C:\EAC rips\04 - Kleine Figuren No. 3.wav
Peak level 96.6 %
Extraction speed 4.1 X
Track quality 100.0 %
Test CRC 103153BE
Copy CRC 103153BE
Accurately ripped (confidence 2) [EB4FE061] (AR v1)
Copy OK
All tracks accurately ripped
No errors occurred
End of status report
---- CUETools DB Plugin V2.1.4
[CTDB TOCID: ppNT97j2AN8Ubtp9T0qJDRsByuE-] disk not present in database
Submit result: ppNT97j2AN8Ubtp9T0qJDRsByuE- has been uploaded
==== Log checksum D66D97CF2EFC50910451BF743582B4794079EA87700F0D06B0A1C0F6C05CE65E ====
 
Содержание индексной карты (.CUE)
REM DISCID 280B6804
REM COMMENT "ExactAudioCopy v1.0b3"
PERFORMER "Gebhard Ullmann Basement Research"
TITLE "Don't Touch My Music Vol. 1"
FILE "01 - Dreierlei.wav" WAVE
TRACK 01 AUDIO
TITLE "Dreierlei"
PERFORMER "Gebhard Ullmann Basement Research"
INDEX 01 00:00:00
FILE "02 - Don't Touch My Music.wav" WAVE
TRACK 02 AUDIO
TITLE "Don't Touch My Music"
PERFORMER "Gebhard Ullmann Basement Research"
INDEX 01 00:00:00
FILE "03 - Kleine Figuren No. 2.wav" WAVE
TRACK 03 AUDIO
TITLE "Kleine Figuren No. 2"
PERFORMER "Gebhard Ullmann Basement Research"
INDEX 01 00:00:00
FILE "04 - Kleine Figuren No. 3.wav" WAVE
TRACK 04 AUDIO
TITLE "Kleine Figuren No. 3"
PERFORMER "Gebhard Ullmann Basement Research"
INDEX 01 00:00:00
По всем вопросам пишите личное сообщение пользователю M0p94ok.
15:23
178
Нет комментариев. Ваш будет первым!