Вы используете незарегистрированную версию компонента "Вкладки"!

Поиск

( free jazz, avant-garde) The Clarinet Trio (Gebhard Ullmann, Michael Thieke, Jurgen Kupke) - The Clarinet Trio 4 (2012), FLAC (tracks+.cue), lossless

( free jazz, avant-garde) The Clarinet Trio (Gebhard Ullmann, Michael Thieke, Jurgen Kupke) - The Clarinet Trio 4 (2012), FLAC (tracks+.cue), lossless
Треклист:


The Clarinet Trio - The Clarinet Trio 4 (2012)

Жанр: free jazz, avant-garde
Год выпуска: 2012
Издатель (лейбл): Leo Records / CD LR 622
Формат: FLAC (tracks+.cue)
Битрейт аудио: lossless
Продолжительность
Источник: what.cd, kivius
Gebhard Ullmann - Bass Clarinet
Michael Thieke - Alto Clarinet, Clarinet
Jurgen Kupke - Clarinet
recorded january 8 & 9, 2011 in Landin, Germany
mixed and mastered in may

tracks

1. May 5 [6:36]
2. Blaues Viertel [4:57]
3. Collectives #13 #14 [5:06]
4. Homogenous Emotions (Ornette Coleman) [2:05]
5. Catwalk Münzstrasse [6:41]
6. Waters [4:32]
7. Kleine Figuren #1 [3:48]
8. News ? No News ! [5:36]
9 .Geringe Abweichungen Von Der Norm [6:12]
10. Kleine Figuren #1 (Variation) [2:06]
11. Kleine Figuren # 2 [3:31]


 
.log
Exact Audio Copy V1.0 beta 3 from 29. August 2011
EAC extraction logfile from 8. November 2012, 4:22
The Clarinet Trio / The Clarinet Trio 4
Used drive : SlimtypeeSAU108 8 Adapter: 5 ID: 0
Read mode : Secure
Utilize accurate stream : Yes
Defeat audio cache : Yes
Make use of C2 pointers : No
Read offset correction : 6
Overread into Lead-In and Lead-Out : No
Fill up missing offset samples with silence : Yes
Delete leading and trailing silent blocks : No
Null samples used in CRC calculations : Yes
Used interface : Native Win32 interface for Win NT & 2000
Gap handling : Appended to previous track
Used output format : User Defined Encoder
Selected bitrate : 1024 kBit/s
Quality : High
Add ID3 tag : No
Command line compressor : C:\Program Files\Exact Audio Copy\Flac\flac.exe
Additional command line options : -8 -V -T "ARTIST=%artist%" -T "TITLE=%title%" -T "ALBUM=%albumtitle%" -T "DATE=%year%" -T "TRACKNUMBER=%tracknr%" -T "GENRE=%genre%" -T "PERFORMER=%albuminterpret%" -T "COMPOSER=%composer%" %haslyrics%--tag-from-file=LYRICS="%lyricsfile%"%haslyrics% -T "ALBUMARTIST=%albumartist%" -T "DISCNUMBER=%cdnumber%" -T "TOTALDISCS=%totalcds%" -T "TOTALTRACKS=%numtracks%" -T "COMMENT=%comment%" %source% -o %dest%
TOC of the extracted CD
Track | Start | Length | Start sector | End sector
---------------------------------------------------------
1 | 0:00.00 | 6:36.69 | 0 | 29768
2 | 6:36.69 | 4:56.70 | 29769 | 52038
3 | 11:33.64 | 5:05.57 | 52039 | 74970
4 | 16:39.46 | 2:04.42 | 74971 | 84312
5 | 18:44.13 | 6:41.11 | 84313 | 114398
6 | 25:25.24 | 4:32.36 | 114399 | 134834
7 | 29:57.60 | 3:48.67 | 134835 | 152001
8 | 33:46.52 | 5:35.66 | 152002 | 177192
9 | 39:22.43 | 6:11.53 | 177193 | 205070
10 | 45:34.21 | 2:06.24 | 205071 | 214544
11 | 47:40.45 | 3:29.61 | 214545 | 230280
Track 1
Filename F:\_MUSIC ALL\The Clarinet Trio - The Clarinet Trio 4 (2012) [FLAC]\01 - May 5.wav
Pre-gap length 0:00:02.00
Peak level 97.8 %
Extraction speed 1.2 X
Track quality 100.0 %
Test CRC 89626424
Copy CRC 89626424
Accurately ripped (confidence 1) [CDDD45E6] (AR v1)
Copy OK
Track 2
Filename F:\_MUSIC ALL\The Clarinet Trio - The Clarinet Trio 4 (2012) [FLAC]\02 - Blaues Viertel.wav
Peak level 96.9 %
Extraction speed 1.2 X
Track quality 100.0 %
Test CRC 55CED9C0
Copy CRC 55CED9C0
Accurately ripped (confidence 1) [F171419D] (AR v1)
Copy OK
Track 3
Filename F:\_MUSIC ALL\The Clarinet Trio - The Clarinet Trio 4 (2012) [FLAC]\03 - Collectives #13 #14.wav
Peak level 97.7 %
Extraction speed 1.3 X
Track quality 99.9 %
Test CRC C9043C40
Copy CRC C9043C40
Accurately ripped (confidence 1) [8708CC10] (AR v1)
Copy OK
Track 4
Filename F:\_MUSIC ALL\The Clarinet Trio - The Clarinet Trio 4 (2012) [FLAC]\04 - Homogenous Emotions (Ornette Coleman).wav
Pre-gap length 0:00:05.74
Peak level 98.9 %
Extraction speed 1.3 X
Track quality 100.0 %
Test CRC 64723C4A
Copy CRC 64723C4A
Accurately ripped (confidence 1) [8E8F8E3F] (AR v1)
Copy OK
Track 5
Filename F:\_MUSIC ALL\The Clarinet Trio - The Clarinet Trio 4 (2012) [FLAC]\05 - Catwalk Münzstrasse.wav
Peak level 99.1 %
Extraction speed 1.7 X
Track quality 100.0 %
Test CRC FC3B87F4
Copy CRC FC3B87F4
Accurately ripped (confidence 1) [5DD7E34A] (AR v1)
Copy OK
Track 6
Filename F:\_MUSIC ALL\The Clarinet Trio - The Clarinet Trio 4 (2012) [FLAC]\06 - Waters.wav
Pre-gap length 0:00:04.30
Peak level 97.7 %
Extraction speed 1.8 X
Track quality 100.0 %
Test CRC 31E94627
Copy CRC 31E94627
Accurately ripped (confidence 1) [25407EC4] (AR v1)
Copy OK
Track 7
Filename F:\_MUSIC ALL\The Clarinet Trio - The Clarinet Trio 4 (2012) [FLAC]\07 - Kleine Figuren #1.wav
Peak level 97.7 %
Extraction speed 1.8 X
Track quality 100.0 %
Test CRC 93C1DA94
Copy CRC 93C1DA94
Accurately ripped (confidence 1) [603F738B] (AR v1)
Copy OK
Track 8
Filename F:\_MUSIC ALL\The Clarinet Trio - The Clarinet Trio 4 (2012) [FLAC]\08 - News No News !.wav
Pre-gap length 0:00:04.90
Peak level 97.4 %
Extraction speed 2.0 X
Track quality 100.0 %
Test CRC 04D2EA1A
Copy CRC 04D2EA1A
Accurately ripped (confidence 1) [50F62EDC] (AR v1)
Copy OK
Track 9
Filename F:\_MUSIC ALL\The Clarinet Trio - The Clarinet Trio 4 (2012) [FLAC]\09 - Geringe Abweichungen Von Der Norm.wav
Peak level 98.3 %
Extraction speed 2.1 X
Track quality 100.0 %
Test CRC 32332E3C
Copy CRC 32332E3C
Accurately ripped (confidence 1) [4EC338D7] (AR v1)
Copy OK
Track 10
Filename F:\_MUSIC ALL\The Clarinet Trio - The Clarinet Trio 4 (2012) [FLAC]\10 - Kleine Figuren #1 (Variation).wav
Peak level 96.1 %
Extraction speed 1.9 X
Track quality 100.0 %
Test CRC 758EFF74
Copy CRC 758EFF74
Accurately ripped (confidence 1) [3934E648] (AR v1)
Copy OK
Track 11
Filename F:\_MUSIC ALL\The Clarinet Trio - The Clarinet Trio 4 (2012) [FLAC]\11 - Kleine Figuren # 2.wav
Pre-gap length 0:00:05.09
Peak level 98.4 %
Extraction speed 1.8 X
Track quality 99.9 %
Test CRC 465C1F71
Copy CRC 465C1F71
Accurately ripped (confidence 1) [AC5C9DBE] (AR v1)
Copy OK
All tracks accurately ripped
No errors occurred
End of status report
==== Log checksum 758C638DE14FBC134F2AE6CC45BA010BD7FCDA0AE161E04D8FCA1908BE2B161B ====
 
.cue
REM GENRE Jazz
REM DATE 2012
REM DISCID 9E0BFE0B
REM COMMENT "ExactAudioCopy v1.0b3"
PERFORMER "The Clarinet Trio"
TITLE "The Clarinet Trio 4"
FILE "01 - May 5.wav" WAVE
TRACK 01 AUDIO
TITLE "May 5"
PERFORMER "The Clarinet Trio"
ISRC GBJZD0110205
INDEX 01 00:00:00
FILE "02 - Blaues Viertel.wav" WAVE
TRACK 02 AUDIO
TITLE "Blaues Viertel"
PERFORMER "The Clarinet Trio"
ISRC GBJZD0110206
INDEX 01 00:00:00
FILE "03 - Collectives #13 #14.wav" WAVE
TRACK 03 AUDIO
TITLE "Collectives #13 #14"
PERFORMER "The Clarinet Trio"
ISRC GBJZD0110207
INDEX 01 00:00:00
TRACK 04 AUDIO
TITLE "Homogenous Emotions (Ornette Coleman)"
PERFORMER "The Clarinet Trio"
ISRC GBJZD0110208
INDEX 00 05:00:01
FILE "04 - Homogenous Emotions (Ornette Coleman).wav" WAVE
INDEX 01 00:00:00
FILE "05 - Catwalk Munzstrasse.wav" WAVE
TRACK 05 AUDIO
TITLE "Catwalk Munzstrasse"
PERFORMER "The Clarinet Trio"
ISRC GBJZD0110209
INDEX 01 00:00:00
TRACK 06 AUDIO
TITLE "Waters"
PERFORMER "The Clarinet Trio"
ISRC GBJZD0110210
INDEX 00 06:36:63
FILE "06 - Waters.wav" WAVE
INDEX 01 00:00:00
FILE "07 - Kleine Figuren #1.wav" WAVE
TRACK 07 AUDIO
TITLE "Kleine Figuren #1"
PERFORMER "The Clarinet Trio"
ISRC GBJZD0110211
INDEX 01 00:00:00
TRACK 08 AUDIO
TITLE "News ? No News !"
PERFORMER "The Clarinet Trio"
ISRC GBJZD0110212
INDEX 00 03:43:74
FILE "08 - News No News !.wav" WAVE
INDEX 01 00:00:00
FILE "09 - Geringe Abweichungen Von Der Norm.wav" WAVE
TRACK 09 AUDIO
TITLE "Geringe Abweichungen Von Der Norm"
PERFORMER "The Clarinet Trio"
ISRC GBJZD0110213
INDEX 01 00:00:00
FILE "10 - Kleine Figuren #1 (Variation).wav" WAVE
TRACK 10 AUDIO
TITLE "Kleine Figuren #1 (Variation) "
PERFORMER "The Clarinet Trio"
ISRC GBJZD0110214
INDEX 01 00:00:00
TRACK 11 AUDIO
TITLE "Kleine Figuren # 2"
PERFORMER "The Clarinet Trio"
ISRC GBJZD0110215
INDEX 00 02:01:17
FILE "11 - Kleine Figuren # 2.wav" WAVE
INDEX 01 00:00:00

The Clarinet Trio(Gebhard Ullmann,Jurgen Kupke,Theo Nabicht) - Oct.1,'98 - 1999
Gebhard Ullmann, Juergen Kupke, Theo Nabicht‎ - Clarinet Trio Two - Translucent Tones
другие релизы
Any questions -> support@pro-jazz.com. По всем вопросам пишите -> support@pro-jazz.com
15:22
210
Нет комментариев. Ваш будет первым!