Вы используете незарегистрированную версию компонента "Вкладки"!

Поиск

(Free Improvisation, Leo Records) Steve Lacy - Joelle Leandre - One More Time - 2005, FLAC (tracks+.cue), lossless

(Free Improvisation, Leo Records) Steve Lacy - Joelle Leandre - One More Time - 2005, FLAC (tracks+.cue), lossless
Треклист:
Steve Lacy - Joëlle Léandre / One More Time
Жанр: Free Improvisation, Leo Records
Страна-производитель диска: U.K.
Год издания: 2005
Издатель (лейбл): Leo Records
Номер по каталогу: CD LR 422
Аудиокодек: FLAC (*.flac)
Тип рипа: tracks+.cue
Битрейт аудио: lossless
Продолжительность: 55:48
Источник (релизер): Max Monteiro
Наличие сканов в содержимом раздачи: нет
Треклист:
1. One More Time 1 (32:08)
2. One More Time 2 (12:19)
3. One More Time 3 (10:16)
4. Phone Message (1:05)
Music by Steve Lacy & Joëlle Léandre.
Recorded live at Belga Cafe, July 28, 2002.
Steve Lacy – Soprano Saxophone
Joëlle Léandre – Double Bass
 
Лог создания рипа
Exact Audio Copy V1.0 beta 3 from 29. August 2011
EAC extraction logfile from 13. June 2013, 14:55
Steve Lacy - Joëlle Léandre / One More Time
Used drive : SlimtypeeNAU508 5 Adapter: 1 ID: 0
Read mode : Secure
Utilize accurate stream : Yes
Defeat audio cache : Yes
Make use of C2 pointers : No
Read offset correction : 6
Overread into Lead-In and Lead-Out : No
Fill up missing offset samples with silence : Yes
Delete leading and trailing silent blocks : No
Null samples used in CRC calculations : Yes
Used interface : Native Win32 interface for Win NT & 2000
Gap handling : Appended to previous track
Used output format : User Defined Encoder
Selected bitrate : 768 kBit/s
Quality : High
Add ID3 tag : No
Command line compressor : C:\Program Files (x86)\Exact Audio Copy\Flac\flac.exe
Additional command line options : -8 -V -T "ARTIST=%artist%" -T "TITLE=%title%" -T "ALBUM=%albumtitle%" -T "DATE=%year%" -T "TRACKNUMBER=%tracknr%" -T "GENRE=%genre%" -T "PERFORMER=%albuminterpret%" -T "COMPOSER=%composer%" %haslyrics%--tag-from-file=LYRICS="%lyricsfile%"%haslyrics% -T "ALBUMARTIST=%albumartist%" -T "DISCNUMBER=%cdnumber%" -T "TOTALDISCS=%totalcds%" -T "TOTALTRACKS=%numtracks%" -T "COMMENT=%comment%" %source% -o %dest%
TOC of the extracted CD
Track | Start | Length | Start sector | End sector
---------------------------------------------------------
1 | 0:00.00 | 32:08.32 | 0 | 144631
2 | 32:08.32 | 12:18.49 | 144632 | 200030
3 | 44:27.06 | 10:16.23 | 200031 | 246253
4 | 54:43.29 | 1:04.68 | 246254 | 251121
Track 1
Filename C:\EAC rips\01 - One More Time 1.wav
Pre-gap length 0:00:02.00
Peak level 100.0 %
Extraction speed 3.1 X
Track quality 100.0 %
Test CRC 1B7A27C1
Copy CRC 1B7A27C1
Accurately ripped (confidence 1) [E5A5E0F0] (AR v1)
Copy OK
Track 2
Filename C:\EAC rips\02 - One More Time 2.wav
Peak level 100.0 %
Extraction speed 3.8 X
Track quality 99.9 %
Test CRC D6FB67DA
Copy CRC D6FB67DA
Accurately ripped (confidence 1) [C6BE11FE] (AR v1)
Copy OK
Track 3
Filename C:\EAC rips\03 - One More Time 3.wav
Peak level 100.0 %
Extraction speed 4.5 X
Track quality 100.0 %
Test CRC 54E6E021
Copy CRC 54E6E021
Accurately ripped (confidence 1) [17FE02FF] (AR v1)
Copy OK
Track 4
Filename C:\EAC rips\04 - Phone Message.wav
Peak level 26.6 %
Extraction speed 3.0 X
Track quality 100.0 %
Test CRC D7220089
Copy CRC D7220089
Accurately ripped (confidence 1) [841B3CAA] (AR v1)
Copy OK
All tracks accurately ripped
No errors occurred
End of status report
---- CUETools DB Plugin V2.1.4
[CTDB TOCID: _Fcx_xkHBToaXK8mphlxHaL9K8w-] found
Submit result: already submitted
Track | CTDB Status
1 | (2/2) Accurately ripped
2 | (2/2) Accurately ripped
3 | (2/2) Accurately ripped
4 | (2/2) Accurately ripped
==== Log checksum 424A5DACF3F8F366B57955468801419EE28F56F6ABCA85109916EB0518309382 ====
 
Содержание индексной карты (.CUE)
REM GENRE Jazz
REM DATE 2005
REM DISCID 380D1404
REM COMMENT "ExactAudioCopy v1.0b3"
PERFORMER "Steve Lacy - Joëlle Léandre"
TITLE "One More Time"
FILE "01 - One More Time 1.wav" WAVE
TRACK 01 AUDIO
TITLE "One More Time 1"
PERFORMER "Steve Lacy - Joëlle Léandre"
INDEX 01 00:00:00
FILE "02 - One More Time 2.wav" WAVE
TRACK 02 AUDIO
TITLE "One More Time 2"
PERFORMER "Steve Lacy - Joëlle Léandre"
INDEX 01 00:00:00
FILE "03 - One More Time 3.wav" WAVE
TRACK 03 AUDIO
TITLE "One More Time 3"
PERFORMER "Steve Lacy - Joëlle Léandre"
INDEX 01 00:00:00
FILE "04 - Phone Message.wav" WAVE
TRACK 04 AUDIO
TITLE "Phone Message"
PERFORMER "Steve Lacy - Joëlle Léandre"
INDEX 01 00:00:00
Any questions -> support@pro-jazz.com. По всем вопросам пишите -> support@pro-jazz.com
15:21
279
Нет комментариев. Ваш будет первым!